<?xml version="1.0" standalone="no"?>
<!DOCTYPE svg PUBLIC "-//W3C//DTD SVG 1.1//EN" "http://www.w3.org/Graphics/SVG/1.1/DTD/svg11.dtd" >
<svg xmlns="http://www.w3.org/2000/svg">
<metadata>Generated by IcoMoon</metadata>
<defs>
<font id="MEShPlus-font-icon" horiz-adv-x="1024">
<font-face units-per-em="1024" ascent="960" descent="-64" />
<missing-glyph horiz-adv-x="1024" />
<glyph unicode="&#x20;" horiz-adv-x="512" d="" />
<glyph unicode="&#xe900;" glyph-name="trash" d="M919.659 888.291h-168.861l-13.386 43.025c0 17.21-14.31 28.684-28.62 28.684h-388.228c-17.172 0-28.621-14.342-28.621-28.684l-13.385-43.025h-171.723c-17.172 0-28.621-14.342-28.621-28.684v-48.762c0-17.21 14.31-28.683 28.621-28.683h809.965c17.172 0 28.617 14.342 28.617 28.683v48.762c2.867 14.342-11.445 28.684-25.758 28.684zM250.947-64h524.593c45.792 0 80.137 37.289 83 80.313l26.768 679.8c0 17.21-14.304 31.552-31.48 31.552h-678.307c-17.172 0-31.483-14.342-31.483-31.552l26.771-679.8c0-43.024 34.345-80.313 80.138-80.313zM269.923 622.528c20.732 1.156 38.472-14.713 39.623-35.445l28.006-504.288c1.152-20.732-14.722-38.471-35.454-39.629s-38.472 14.714-39.623 35.446l-28.006 504.284c-1.152 20.732 14.721 38.476 35.453 39.633zM473.091 584.467c0 22.178 17.978 40.157 40.157 40.157s40.157-17.979 40.157-40.157v-503.24c0-22.181-17.978-40.157-40.157-40.157s-40.157 17.975-40.157 40.157v503.24zM756.59 622.528c20.732-1.158 36.603-18.904 35.451-39.636l-28.044-504.281c-1.153-20.732-18.894-36.604-39.626-35.446s-36.604 18.905-35.451 39.637l28.043 504.284c1.153 20.732 18.894 36.6 39.626 35.442z" />
<glyph unicode="&#xe901;" glyph-name="address-book" d="M730.038 925.389h-587.763c-41.712 0-75.84-36.181-75.84-80.402v-793.969c0-44.227 34.128-80.407 75.84-80.407h587.763c41.715 0 75.838 36.18 75.838 80.407v793.969c0 44.221-34.124 80.402-75.838 80.402zM436.157 754.535c80.105 0 145.139-68.844 145.139-153.87 0-84.924-64.938-153.87-145.139-153.87s-145.139 68.844-145.139 153.87c0 85.026 65.033 153.87 145.139 153.87zM628.981 145.285h-385.648c-11.755 0-21.141 10.556-20.476 23.018 8.531 152.763 102.384 247.737 213.301 247.737s204.769-94.975 213.301-247.737c0.758-12.462-8.627-23.018-20.476-23.018zM444.776 334.031l32.043 42.312c5.024 6.533 0.569 16.382-7.395 16.382h-64.085c-7.963 0-12.419-9.749-7.394-16.382l32.043-42.312c3.792-5.024 10.997-5.024 14.789 0zM432.753 172.725l-22.278 30.854c-1.612 2.215-2.18 5.024-1.516 7.643l23.036 105.525c1.043 4.723 7.394 4.723 8.437 0l23.036-105.525c0.569-2.714 0-5.532-1.517-7.643l-22.278-30.854c-1.8-2.413-5.214-2.413-6.921 0zM922.586 550.721l-78.021-6.332c-5.497-0.402-10.241 4.121-10.241 10.049v269.649c0 5.829 4.743 10.452 10.241 10.050l78.021-6.332c19.721-1.708 34.98-19.095 34.98-40.101v-196.985c0-21.005-15.259-38.393-34.98-40zM922.586 229.106l-78.021-6.327c-5.497-0.405-10.241 4.12-10.241 10.049v269.648c0 5.828 4.743 10.452 10.241 10.049l78.021-6.331c19.721-1.608 34.98-19.096 34.98-40.101v-196.985c0-21.005-15.259-38.392-34.98-40.003z" />
<glyph unicode="&#xe902;" glyph-name="angle-double-left" d="M495.784 916.008c19.755-17.608 21.616-47.957 4.009-67.712l-355.742-400.121 355.742-400.267c17.608-19.754 15.891-50.105-4.009-67.71-19.755-17.605-50.105-15.892-67.713 4.010l-383.944 431.9c-16.177 18.18-16.177 45.523 0 63.847l383.944 432.044c17.608 19.755 47.957 21.617 67.713 4.009zM975.792 916.008c19.754-17.608 21.615-47.957 4.002-67.712l-355.739-400.121 355.739-400.267c17.612-19.754 15.892-50.105-4.002-67.71-19.762-17.605-50.105-15.892-67.717 4.010l-383.943 431.9c-16.177 18.18-16.177 45.523 0 63.847l383.943 432.044c17.612 19.755 47.956 21.617 67.717 4.009z" />
<glyph unicode="&#xe903;" glyph-name="angle-double-right" d="M528.216-20.009c-19.755 17.612-21.616 47.956-4.009 67.717l355.739 400.118-355.739 400.264c-17.608 19.755-15.891 50.105 4.009 67.713 19.755 17.608 50.105 15.891 67.713-4.009l383.947-431.901c16.172-18.181 16.172-45.524 0-63.848l-383.947-432.044c-17.608-19.754-47.957-21.615-67.713-4.010zM48.211-20.009c-19.755 17.612-21.617 47.956-4.009 67.717l355.742 400.118-355.742 400.264c-17.608 19.755-15.891 50.105 4.009 67.713 19.755 17.608 50.105 15.891 67.712-4.009l383.944-431.901c16.177-18.181 16.177-45.524 0-63.848l-383.944-432.044c-17.608-19.754-47.957-21.615-67.712-4.010z" />
<glyph unicode="&#xe904;" glyph-name="arrow-down" d="M223.008 362.368l251.375-405.413c17.29-27.892 57.917-27.892 75.206 0l251.375 405.413c18.285 29.457-2.918 67.523-37.567 67.523h-126.862v481.476c0 26.824-21.773 48.596-48.596 48.596h-151.836c-26.824 0-48.596-21.772-48.596-48.596v-481.476h-126.862c-34.722 0-55.853-38.066-37.639-67.523z" />
<glyph unicode="&#xe905;" glyph-name="arrow-up" d="M800.978 533.63l-251.375 405.416c-17.29 27.891-57.917 27.891-75.206 0l-251.375-405.416c-18.286-29.457 2.917-67.522 37.568-67.522h126.861v-481.48c0-26.821 21.773-48.593 48.596-48.593h151.836c26.824 0 48.596 21.772 48.596 48.593v481.408h126.862c34.721 0 55.925 38.066 37.638 67.593z" />
<glyph unicode="&#xe906;" glyph-name="box-open" d="M934.138 399.906l-666.862 425.637c-3.13 2.019-3.835 6.382-1.565 9.37l109.969 88.375c3.913 5.008 10.723 6.22 16.045 2.828l576.694-368.040c5.241-3.393 7.282-10.259 4.693-16.075l-30.13-139.267c-1.643-3.554-5.717-4.847-8.846-2.828zM852.118 265.4l-657.779 419.82c-5.792 3.715-7.514 11.471-3.992 17.449l47.040 83.528c3.601 5.978 11.115 7.755 16.907 4.12l657.778-419.82c5.796-3.716 7.517-11.471 3.997-17.45l-47.040-83.528c-3.598-5.978-11.193-7.755-16.911-4.119zM74.345 474.789h389.551l334.761-213.667v-267.79c0-14.059-11.036-25.365-24.576-25.365h-699.735c-13.619 0-24.577 11.392-24.577 25.365v456.091c0 13.974 10.958 25.365 24.577 25.365zM307.601 354.418h233.244c10.176 0 18.394 8.483 18.394 18.984s-8.218 18.984-18.394 18.984h-233.244c-10.176 0-18.394-8.483-18.394-18.984s8.218-18.984 18.394-18.984zM256.942 573.835h-49.076v-26.416h49.076c7.044 0 12.836 5.978 12.836 13.249 0 7.19-5.792 13.167-12.836 13.167zM133.202 573.835c-7.044 0-12.836-5.978-12.836-13.248s5.792-13.248 12.836-13.248h49.076v26.415h-49.076v0.081zM182.276 496.684c0-7.269 5.792-13.248 12.836-13.248s12.836 5.978 12.836 13.248v50.65h-25.595v-50.65h-0.078zM207.879 624.482c0 7.269-5.792 13.248-12.836 13.248s-12.836-5.978-12.836-13.248v-50.651h25.595l0.078 50.651zM179.78 779.49h-44.927v-24.154h44.927c6.418 0 11.74 5.412 11.74 12.117 0 6.543-5.323 12.037-11.74 12.037zM66.606 779.49c-6.418 0-11.74-5.412-11.74-12.117 0-6.624 5.244-12.116 11.74-12.116h44.927v24.153h-44.927v0.081zM111.45 708.973c0-6.624 5.244-12.117 11.74-12.117s11.74 5.412 11.74 12.117v46.368h-23.481v-46.368zM134.93 825.779c0 6.624-5.243 12.117-11.74 12.117-6.418 0-11.74-5.413-11.74-12.117v-46.369h23.403v46.369h0.078z" />
<glyph unicode="&#xe907;" glyph-name="box" d="M966.090 742.615h-908.272c-4.244 0-7.607 3.791-7.046 8.067l54.29 164.733c0.881 7.18 6.967 12.585 14.092 12.585h785.517c7.204 0 13.212-5.405 14.094-12.585l54.371-164.733c0.555-4.276-2.723-8.067-7.047-8.067zM959.932 578.769h-895.941c-7.847 0-14.253 6.373-14.253 14.36v97.613c0 7.905 6.406 14.36 14.253 14.36h896.019c7.843 0 14.251-6.454 14.251-14.36v-97.613c-0.078-7.987-6.486-14.36-14.329-14.36zM106.581-32c-15.695 0-28.426 12.821-28.426 28.637v515.819c0 15.812 12.731 28.639 28.426 28.639h810.663c15.695 0 28.423-12.827 28.423-28.639v-515.819c0.078-15.815-12.651-28.637-28.423-28.637h-810.663zM376.837 404.997h270.247c11.771 0 21.3 9.6 21.3 21.459s-9.529 21.458-21.3 21.458h-270.247c-11.771 0-21.3-9.6-21.3-21.458s9.529-21.459 21.3-21.459z" />
<glyph unicode="&#xe908;" glyph-name="broadcast-tower" d="M512.039 624.717c-66.738 0-120.839 53.005-120.839 118.389s54.101 118.388 120.839 118.388c66.737 0 120.838-53.004 120.838-118.388s-54.101-118.389-120.838-118.389zM697.075 642.617c10.534 0 20.203 5.588 25.326 14.586 13.537 23.772 21.075 49.723 22.334 77.095 1.738 37.506-8.509 73.874-29.677 105.034-8.897 13.070-26.877 16.575-40.217 7.955-13.341-8.713-16.917-26.33-8.12-39.4 14.307-21.026 21.268-45.556 20.011-70.938-0.87-18.469-5.897-35.99-15.081-52.090-3.77-6.629-4.641-14.302-2.611-21.594 2.127-7.292 7.057-13.354 13.728-17.047 4.447-2.368 9.377-3.6 14.307-3.6zM805.721 559.326c10.54 0 20.203 5.588 25.326 14.586 25.332 44.419 39.345 92.911 41.766 144.055 3.38 70.18-15.857 138.088-55.391 196.43-8.897 13.070-26.974 16.575-40.217 7.955-13.342-8.713-16.917-26.329-8.12-39.4 32.675-48.208 48.525-104.277 45.823-162.334-2.031-42.336-13.631-82.398-34.512-119.051-7.737-13.733-2.709-31.066 11.212-38.642 4.352-2.368 9.186-3.6 14.114-3.6zM218.356 559.364c4.93 0 9.763 1.231 14.114 3.599 13.921 7.577 18.948 24.909 11.214 38.642-20.88 36.653-32.482 76.715-34.512 119.051-2.804 58.058 13.051 114.126 45.822 162.335 8.894 13.070 5.22 30.686-8.12 39.4s-31.322 5.114-40.215-7.861c-39.635-58.342-58.776-126.25-55.49-196.43 2.416-51.144 16.434-99.635 41.762-144.054 5.22-9.093 14.984-14.68 25.424-14.68zM327.117 642.607c4.93 0 9.764 1.231 14.114 3.6 6.767 3.694 11.698 9.755 13.824 17.047s1.16 14.965-2.61 21.594c-9.087 16.005-14.211 33.527-15.081 52.090-1.257 25.382 5.704 49.912 20.011 70.938 8.894 13.070 5.22 30.686-8.12 39.4-6.478 4.167-14.211 5.682-21.751 4.167s-14.114-5.777-18.367-12.122c-21.171-31.254-31.418-67.529-29.678-105.034 1.257-27.372 8.797-53.323 22.331-77.095 5.124-9.093 14.791-14.586 25.328-14.586zM220.552 9.001l264.299 574.893c10.344 22.352 42.729 22.352 53.072 0l264.203-574.893c8.697-18.848-5.317-40.157-26.391-40.157h-80.915c-11.407 0-21.751 6.533-26.391 16.667l-141.043 308.755c-6.187 13.448-25.618 13.448-31.902 0l-141.043-308.755c-4.736-10.135-14.984-16.667-26.391-16.667h-80.914c-21.171 0-35.285 21.307-26.584 40.157z" />
<glyph unicode="&#xe909;" glyph-name="calendar-done" d="M949.781 817.299h-120.376v58.068c0 22.823-18.685 41.506-41.506 41.506h-22.825c-22.823 0-41.505-18.683-41.505-41.506v-58.068h-423.239v58.068c0 22.823-18.683 41.506-41.505 41.506h-22.823c-22.823 0-41.505-18.683-41.505-41.506v-58.068h-120.276c-22.823 0-41.506-18.683-41.506-41.506v-29.083c0-22.823 18.683-41.506 41.506-41.506h875.563c22.821 0 41.506 18.683 41.506 41.506v29.083c0 22.823-18.685 41.506-41.506 41.506zM949.781 667.966h-875.563c-22.823 0-41.506-18.683-41.506-41.506v-605.825c0-22.821 18.683-41.506 41.506-41.506h875.563c22.821 0 41.506 18.685 41.506 41.506v605.825c0 22.823-18.685 41.506-41.506 41.506zM773.048 416.909l-299.93-285.796c-6.463-6.157-16.764-5.957-22.923 0.508l-198.946 208.739c-6.161 6.463-5.958 16.764 0.506 22.923l73.518 70.085c6.463 6.161 16.764 5.958 22.923-0.505l117.753-123.508 214.6 204.499c6.463 6.161 16.764 5.958 22.923-0.505l70.086-73.518c6.157-6.464 5.957-16.764-0.508-22.924z" />
<glyph unicode="&#xe90a;" glyph-name="calendar-plus" d="M693.998 368.911h-135.845v135.845c0 25.593-20.782 46.375-46.375 46.375s-46.375-20.782-46.375-46.375v-135.845h-135.845c-25.593 0-46.375-20.782-46.375-46.375s20.782-46.375 46.375-46.375h135.845v-135.844c0-25.595 20.782-46.377 46.375-46.377s46.375 20.782 46.375 46.377v135.844h135.845c25.593 0 46.375 20.782 46.375 46.375s-20.782 46.375-46.375 46.375zM74.273 667.954c-22.75 0-41.564-18.594-41.564-41.564v-605.731c0-22.75 18.594-41.564 41.564-41.564h875.454c22.75 0 41.564 18.6 41.564 41.564v605.731c0 22.75-18.6 41.564-41.564 41.564h-875.454zM904.884 107.288c0-22.75-18.6-41.564-41.564-41.564h-703.077c-22.75 0-41.564 18.592-41.564 41.564v432.695c0 22.751 18.594 41.564 41.564 41.564h703.29c22.75 0 41.564-18.594 41.564-41.564v-432.695h-0.213zM949.507 817.371h-120.311v57.97c0 22.75-18.6 41.564-41.564 41.564h-22.753c-22.75 0-41.563-18.594-41.563-41.564v-58.189h-423.070v58.189c0 22.75-18.594 41.564-41.564 41.564h-22.75c-22.751 0-41.344-18.594-41.344-41.564v-58.189h-120.315c-22.969 0.219-41.564-18.594-41.564-41.344v-29.094c0-22.75 18.594-41.563 41.564-41.563h875.454c22.75 0 41.564 18.594 41.564 41.563v29.094c-0.221 22.751-18.813 41.564-41.784 41.564z" />
<glyph unicode="&#xe90b;" glyph-name="calendar" d="M940.321 675.285h-856.724c-27.802 0-50.395-22.594-50.395-50.395v-587.95c0-27.797 22.594-50.395 50.395-50.395h856.724c27.797 0 50.395 22.598 50.395 50.395v587.95c0 27.886-22.598 50.395-50.395 50.395zM923.52 94.979c0-23.18-18.812-41.998-41.998-41.998h-739.13c-23.182 0-41.996 18.818-41.996 41.998v471.871c0 23.182 18.814 41.996 41.996 41.996h739.13c23.187 0 41.998-18.815 41.998-41.996v-471.871zM303.153 478.91c0-16.966-13.858-30.825-30.824-30.825h-49.304c-16.966 0-30.825 13.859-30.825 30.825v12.347c0 16.966 13.859 30.825 30.825 30.825h49.304c16.966 0 30.824-13.859 30.824-30.825v-12.347zM477.775 478.91c0-16.966-13.859-30.825-30.825-30.825h-49.304c-16.966 0-30.825 13.859-30.825 30.825v12.347c0 16.966 13.859 30.825 30.825 30.825h49.304c16.966 0 30.825-13.859 30.825-30.825v-12.347zM652.396 478.91c0-16.966-13.859-30.825-30.825-30.825h-49.304c-16.966 0-30.825 13.859-30.825 30.825v12.347c0 16.966 13.859 30.825 30.825 30.825h49.304c16.966 0 30.825-13.859 30.825-30.825v-12.347zM827.010 478.91c0-16.966-13.854-30.825-30.824-30.825h-49.301c-16.966 0-30.825 13.859-30.825 30.825v12.347c0 16.966 13.859 30.825 30.825 30.825h49.301c16.97 0 30.824-13.859 30.824-30.825v-12.347zM303.153 321.005c0-16.966-13.858-30.825-30.824-30.825h-49.304c-16.966 0-30.825 13.859-30.825 30.825v12.347c0 16.966 13.859 30.825 30.825 30.825h49.304c16.966 0 30.824-13.859 30.824-30.825v-12.347zM477.775 321.005c0-16.966-13.859-30.825-30.825-30.825h-49.304c-16.966 0-30.825 13.859-30.825 30.825v12.347c0 16.966 13.859 30.825 30.825 30.825h49.304c16.966 0 30.825-13.859 30.825-30.825v-12.347zM652.396 321.005c0-16.966-13.859-30.825-30.825-30.825h-49.304c-16.966 0-30.825 13.859-30.825 30.825v12.347c0 16.966 13.859 30.825 30.825 30.825h49.304c16.966 0 30.825-13.859 30.825-30.825v-12.347zM827.010 321.005c0-16.966-13.854-30.825-30.824-30.825h-49.301c-16.966 0-30.825 13.859-30.825 30.825v12.347c0 16.966 13.859 30.825 30.825 30.825h49.301c16.97 0 30.824-13.859 30.824-30.825v-12.347zM303.153 163.015c0-16.97-13.858-30.824-30.824-30.824h-49.304c-16.966 0-30.825 13.854-30.825 30.824v12.346c0 16.966 13.859 30.825 30.825 30.825h49.304c16.966 0 30.824-13.859 30.824-30.825v-12.346zM477.775 163.015c0-16.97-13.859-30.824-30.825-30.824h-49.304c-16.966 0-30.825 13.854-30.825 30.824v12.346c0 16.966 13.859 30.825 30.825 30.825h49.304c16.966 0 30.825-13.859 30.825-30.825v-12.346zM652.396 163.015c0-16.97-13.859-30.824-30.825-30.824h-49.304c-16.966 0-30.825 13.854-30.825 30.824v12.346c0 16.966 13.859 30.825 30.825 30.825h49.304c16.966 0 30.825-13.859 30.825-30.825v-12.346zM827.010 163.015c0-16.97-13.854-30.824-30.824-30.824h-49.301c-16.966 0-30.825 13.854-30.825 30.824v12.346c0 16.966 13.859 30.825 30.825 30.825h49.301c16.97 0 30.824-13.859 30.824-30.825v-12.346zM949.226 810.848h-114.739c-2.939 0-5.37 2.436-5.37 5.375v52.159c-0.089 22.594-18.73 41.073-41.496 41.073h-22.843c-22.763 0-41.494-18.479-41.494-41.073v-52.159c0-2.939-2.436-5.375-5.375-5.375h-411.983c-2.939 0-5.375 2.436-5.375 5.375v52.159c0 22.594-18.646 41.073-41.408 41.073h-22.762c-22.763 0-41.493-18.479-41.493-41.073v-52.159c0-2.939-2.436-5.375-5.376-5.375h-114.818c-22.762 0-41.493-10.079-41.493-32.673v-28.725c0-22.594 18.646-32.672 41.493-32.672h874.613c22.759 0 41.49 10.079 41.49 32.672v28.725c-0.080 22.594-18.73 32.673-41.571 32.673z" />
<glyph unicode="&#xe90c;" glyph-name="caret-down" d="M580.25 141.744c-30.333-52.239-106.167-52.239-136.501 0l-273.002 470.154c-30.333 52.239 7.583 117.538 68.251 117.538h546.004c60.667 0 98.584-65.3 68.251-117.538l-273.003-470.154z" />
<glyph unicode="&#xe90d;" glyph-name="caret-up" d="M436.61 690.256c30.334 52.239 106.168 52.239 136.502 0l273.002-470.154c30.333-52.239-7.583-117.538-68.251-117.538h-546.004c-60.667 0-98.584 65.3-68.251 117.538l273.002 470.154z" />
<glyph unicode="&#xe90e;" glyph-name="chart_with_num" d="M32 192.652c0 31.017 25.479 56.163 56.91 56.163h284.548c31.431 0 56.91-25.146 56.91-56.163v-168.492c0-31.015-25.479-56.16-56.91-56.16h-284.548c-31.431 0-56.91 25.145-56.91 56.16v168.492zM593.635 420.788c0 31.258 25.479 56.599 56.91 56.599h284.55c31.429 0 56.906-25.341 56.906-56.599v-396.193c0-31.259-25.477-56.596-56.906-56.596h-284.55c-31.431 0-56.91 25.337-56.91 56.596v396.193zM312.815 699.428v-391.837h-108.906v256.757c-17.622-13.315-34.717-24.090-51.281-32.324-16.388-8.235-37.007-16.119-61.854-23.652v87.775c36.654 11.738 65.115 25.842 85.38 42.311s36.126 36.791 47.58 60.969h89.080zM933.226 529.633h-280.817c3.217 32.24 12.945 62.52 29.184 90.842 16.392 28.499 47.033 62.075 91.918 100.728 27.427 23.69 44.965 41.68 52.63 53.97 7.658 12.291 11.483 23.957 11.483 35.001 0 11.933-3.825 22.087-11.483 30.458-7.51 8.55-17.007 12.825-28.497 12.825-11.948 0-21.755-4.364-29.416-13.092-7.508-8.728-12.563-24.135-15.167-46.223l-93.758 8.817c3.677 30.637 10.418 54.505 20.223 71.604 9.804 17.278 23.593 30.458 41.364 39.543 17.925 9.263 42.666 13.894 74.222 13.894 32.943 0 58.523-4.364 76.756-13.092 18.388-8.728 32.788-22.176 43.2-40.344 10.575-17.991 15.863-38.207 15.863-60.65 0-23.869-6.055-46.668-18.158-68.398-11.948-21.73-33.777-45.598-65.494-71.604-18.838-15.141-31.48-25.739-37.913-31.795-6.284-6.056-13.713-13.982-22.294-23.779h146.156v-88.704z" />
<glyph unicode="&#xe90f;" glyph-name="chart_without_num" d="M32 532.706c0 31.188 25.283 56.471 56.47 56.471h282.353c31.188 0 56.47-25.283 56.47-56.471v-508.236c0-31.185-25.283-56.47-56.47-56.47h-282.353c-31.188 0-56.47 25.285-56.47 56.47v508.236zM596.707 871.53c0 31.188 25.282 56.47 56.471 56.47h282.353c31.185 0 56.47-25.283 56.47-56.47v-847.059c0-31.185-25.285-56.47-56.47-56.47h-282.353c-31.188 0-56.471 25.285-56.471 56.47v847.059z" />
<glyph unicode="&#xe910;" glyph-name="chart-bar" d="M380.114 279.866h-74.874c-12.403 0-22.416 9.997-22.416 22.38v246.066c0 12.382 10.014 22.38 22.416 22.38h74.874c12.403 0 22.416-9.997 22.416-22.38v-246.066c0-12.382-10.014-22.38-22.416-22.38zM583.581 279.866h-74.875c-12.403 0-22.416 9.997-22.416 22.38v335.471c0 12.383 10.014 22.38 22.416 22.38h74.875c12.403 0 22.416-9.997 22.416-22.38v-335.471c0-12.382-10.014-22.38-22.416-22.38zM786.913 279.87h-74.872c-12.403 0-22.416 9.997-22.416 22.38v458.503c0 12.382 10.014 22.38 22.416 22.38h74.872c12.404 0 22.418-9.997 22.418-22.38v-458.503c0-12.382-10.014-22.38-22.418-22.38zM933.024 237.833h-716.88v602.098c0 31.354-25.489 56.801-56.895 56.801s-56.895-25.447-56.895-56.801v-602.098h-11.379c-31.406 0-56.895-25.448-56.895-56.802s25.489-56.8 56.895-56.8h11.379v-68.166c0-31.352 25.489-56.799 56.895-56.799s56.895 25.448 56.895 56.799v68.166h716.88c31.403 0 56.894 25.448 56.894 56.8 0 31.354-25.491 56.802-56.894 56.802z" />
<glyph unicode="&#xe911;" glyph-name="chart-line" d="M933.025 237.833h-716.88v602.098c0 31.354-25.489 56.801-56.895 56.801s-56.895-25.447-56.895-56.801v-602.098h-11.379c-31.406 0-56.895-25.448-56.895-56.802s25.489-56.8 56.895-56.8h11.379v-68.166c0-31.352 25.489-56.799 56.895-56.799s56.895 25.448 56.895 56.799v68.166h716.88c31.403 0 56.894 25.448 56.894 56.8 0 31.354-25.491 56.802-56.894 56.802zM307.181 288.956c-10.355 0-20.823 3.18-29.926 9.655-22.986 16.473-28.107 48.395-11.606 71.342l204.822 284.009c10.242 14.199 27.196 22.039 44.606 21.13 17.523-1.022 33.34-11.019 41.761-26.356l83.976-152.342 226.441 348.649c15.36 23.629 47.109 30.446 70.776 15.11s30.499-47.032 15.139-70.661l-273.1-420.332c-9.786-15.109-26.855-23.857-44.834-23.288-17.98 0.681-34.365 10.679-43.013 26.47l-86.139 156.318-157.372-218.459c-10.014-13.86-25.716-21.244-41.533-21.244z" />
<glyph unicode="&#xe912;" glyph-name="chart-pie-alt" d="M498.85 864.681c0.358 6.751-4.942 12.391-11.717 12.55-16.857 0.437-33.874-0.080-51.051-1.549-252.149-21.725-438.262-244.767-412.836-496.526 24.948-246.914 248.044-429.046 495.889-405.142 164.394 15.851 300.089 117.363 366.529 256.249 2.909 6.077 0.279 13.384-5.939 16.124l-396.897 174.948c-4.543 1.986-7.372 6.593-7.093 11.518l23.115 431.828zM572.293 912.784l-22.995-429.128c-0.359-6.593 3.427-12.71 9.485-15.37l394.424-173.836c6.181-2.74 13.388 0.239 15.942 6.474 26.662 64.657 38.698 136.423 32.2 210.89-19.447 223.599-198.784 395.052-416.103 412.249-6.695 0.477-12.594-4.567-12.952-11.279z" />
<glyph unicode="&#xe913;" glyph-name="chart-scatter" d="M933.025 237.833h-716.88v602.098c0 31.354-25.489 56.801-56.895 56.801s-56.895-25.447-56.895-56.801v-602.098h-11.379c-31.406 0-56.895-25.448-56.895-56.802s25.489-56.8 56.895-56.8h11.379v-68.166c0-31.352 25.489-56.799 56.895-56.799s56.895 25.448 56.895 56.799v68.166h716.88c31.403 0 56.894 25.448 56.894 56.8 0 31.354-25.491 56.802-56.894 56.802zM398.223 374.158c50.276 0 91.032 40.689 91.032 90.883s-40.757 90.883-91.032 90.883c-50.276 0-91.032-40.689-91.032-90.883s40.757-90.883 91.032-90.883zM591.646 624.086c69.129 0 125.17 55.948 125.17 124.963s-56.040 124.964-125.17 124.964c-69.129 0-125.17-55.948-125.17-124.964s56.040-124.963 125.17-124.963zM819.236 294.631c43.998 0 79.657 35.603 79.657 79.522s-35.66 79.522-79.657 79.522c-43.991 0-79.65-35.602-79.65-79.522s35.659-79.522 79.65-79.522zM716.82 499.119c18.854 0 34.137 15.259 34.137 34.081s-15.283 34.082-34.137 34.082c-18.854 0-34.137-15.259-34.137-34.082s15.283-34.081 34.137-34.081z" />
<glyph unicode="&#xe914;" glyph-name="check-circle" d="M512 928c-265.114 0-480-214.886-480-480s214.886-480 480-480c265.115 0 480 214.885 480 480s-214.885 480-480 480zM844.389 568.423l-382.463-364.569c-8.294-7.911-21.428-7.603-29.261 0.691l-253.748 266.266c-7.911 8.294-7.603 21.428 0.691 29.261l93.773 89.318c8.294 7.911 21.428 7.603 29.261-0.691l150.144-157.517 273.715 260.889c8.294 7.911 21.428 7.603 29.261-0.691l89.32-93.773c7.909-8.217 7.598-21.274-0.694-29.184z" />
<glyph unicode="&#xe915;" glyph-name="check-square" d="M879.067 928h-734.137c-62.4 0-112.93-50.531-112.93-112.93v-734.137c0-62.4 50.531-112.933 112.93-112.933h734.137c62.4 0 112.933 50.533 112.933 112.933v734.137c0 62.4-50.533 112.93-112.933 112.93zM879.421 581.090l-422.753-402.939c-9.163-8.729-23.651-8.374-32.378 0.79l-280.494 294.28c-8.727 9.163-8.378 23.65 0.786 32.377l103.592 98.793c9.163 8.727 23.651 8.377 32.378-0.786l165.905-174.109 302.575 288.349c9.163 8.727 23.651 8.378 32.38-0.785l98.791-103.593c8.729-9.163 8.374-23.651-0.783-32.378z" />
<glyph unicode="&#xe916;" glyph-name="cheers" d="M226.978 344.402l227.449-269.223 98.473 31.664-278.344 329.401-47.578-91.842zM143.574 183.926l138.757-164.116 98.308 31.664-189.486 224.13-47.578-91.679zM42.943-9.871c-10.776-20.887 9.118-44.424 31.498-37.133l134.116 43.102-100.628 119.031-64.986-125.001zM718.427 198.35l-326.254 385.936c-12.102 14.257-34.814 11.77-43.434-4.808l-38.627-74.435 0.166 0.166 316.306-374.494 79.74 25.694c17.738 5.636 24.039 27.684 12.102 41.94zM680.193 703.979c10.346 0 18.733 8.387 18.733 18.733s-8.387 18.733-18.733 18.733c-10.346 0-18.733-8.387-18.733-18.733s8.387-18.733 18.733-18.733zM940.503 531.568c10.349 0 18.737 8.387 18.737 18.733s-8.388 18.733-18.737 18.733c-10.342 0-18.73-8.387-18.73-18.733s8.388-18.733 18.73-18.733zM715.019 394.966c20.967 0 37.964 16.997 37.964 37.964s-16.997 37.964-37.964 37.964c-20.967 0-37.964-16.997-37.964-37.964s16.997-37.964 37.964-37.964zM486.942 547.483l189.154 350.789-152.020 46.087-37.134-396.876zM680.857 317.216l303.214-61.669v123.34l-303.214-61.67zM688.772 571.852l145.889 12.931-61.672 106.927-84.216-119.858z" />
<glyph unicode="&#xe917;" glyph-name="chevron-down" d="M75.316 576.409c16.438 18.493 44.755 20.158 63.248 3.721l373.436-331.944 373.439 331.944c18.492 16.438 46.806 14.773 63.244-3.721s14.77-46.81-3.722-63.248l-403.197-358.4c-16.974-15.088-42.553-15.088-59.527 0l-403.199 358.4c-18.492 16.438-20.158 44.755-3.721 63.248z" />
<glyph unicode="&#xe918;" glyph-name="chevron-left" d="M735.819 915.93c19.755-17.608 21.616-47.957 4.009-67.712l-355.742-400.121 355.742-400.267c17.608-19.754 15.891-50.105-4.009-67.71-19.755-17.605-50.105-15.892-67.713 4.010l-383.944 431.9c-16.177 18.18-16.177 45.523 0 63.847l383.944 432.044c17.608 19.755 47.957 21.617 67.713 4.009z" />
<glyph unicode="&#xe919;" glyph-name="chevron-right" d="M288.181-19.932c-19.756 17.612-21.617 47.956-4.009 67.717l355.742 400.118-355.742 400.264c-17.608 19.755-15.891 50.105 4.009 67.713 19.755 17.608 50.105 15.891 67.713-4.009l383.944-431.901c16.177-18.181 16.177-45.524 0-63.848l-383.944-432.044c-17.608-19.754-47.957-21.615-67.713-4.010z" />
<glyph unicode="&#xe91a;" glyph-name="chevron-up" d="M948.683 151.591c-16.438-18.493-44.752-20.158-63.244-3.721l-373.439 331.944-373.436-331.944c-18.492-16.438-46.809-14.773-63.248 3.721s-14.772 46.81 3.721 63.248l403.199 358.4c16.974 15.088 42.553 15.088 59.527 0l403.197-358.4c18.492-16.438 20.16-44.755 3.722-63.248z" />
<glyph unicode="&#xe91b;" glyph-name="circle" d="M512 71.385c-207.998 0-376.615 168.617-376.615 376.615s168.617 376.615 376.615 376.615c207.998 0 376.615-168.617 376.615-376.615s-168.617-376.615-376.615-376.615zM512-32c265.101 0 480 214.899 480 480 0 265.097-214.899 480-480 480-265.097 0-480-214.903-480-480 0-265.101 214.903-480 480-480z" />
<glyph unicode="&#xe91c;" glyph-name="clipboard" d="M917.603 697.999h-87.013v-591.8c0-15.6-12.047-28.2-26.96-28.2h-632.792v-81c0-16 12.43-29 27.728-29h719.036c15.3 0 27.727 13 27.727 29v672c0 16-12.427 29-27.727 29zM576.253 927.999h-291.152c-13.673 0-24.765-11.6-24.765-25.9v-38.1c0-14.4 11.092-26 24.765-26h291.152c13.672 0 24.765 11.6 24.765 25.9v38.2c0.096 14.3-10.996 25.9-24.765 25.9zM430.725 862.999c-10.518 0-19.123 9-19.123 20s8.605 20 19.123 20c10.517 0 19.123-9 19.123-20s-8.605-20-19.123-20zM755.729 877.999h-54.31c-5.258 0-13.865 0-19.123 0h-23.904c-5.258 0-12.43 0-15.872 0s-6.31-4.5-6.31-10c0-38.5-30.119-70-66.932-70h-296.41c-26.39 0-47.808 22.4-47.808 50v20c0 5.5-4.303 10-9.562 10h-49.434c-5.258 0-13.865 0-19.123 0h-41.306c-14.917 0-26.963-12.6-26.963-28.2v-693.5c0-15.7 12.048-28.3 26.963-28.3h17.306c5.258 0 13.865 0 19.123 0h613.666c14.914 0 26.96 12.6 26.96 28.2v571.8c0 5.5 0 14.5 0 20v101.8c0.1 15.6-12.047 28.2-26.96 28.2z" />
<glyph unicode="&#xe91d;" glyph-name="cog" d="M65.062 358.864c-13.784 0.669-25.062 12.447-25.062 26.232v139.762c0 13.784 11.278 25.563 25.062 26.232l86.296 4.093c13.784 0.669 28.738 11.445 33.165 23.892 4.511 12.531 11.946 52.045 2.673 62.238l-54.217 59.648c-9.273 10.191-8.855 26.482 0.836 36.256l98.828 98.912c9.773 9.773 26.064 10.109 36.256 0.835l60.149-54.719c10.191-9.273 28.069-12.364 39.598-6.851 11.612 5.514 44.277 27.987 44.944 41.77l3.676 77.775c0.669 13.784 12.447 25.062 26.232 25.062h139.762c13.784 0 25.563-11.278 26.232-25.062l3.676-77.775c0.669-13.784 11.778-28.905 24.728-33.583l24.811-10.443c12.363-6.099 30.826-3.509 41.018 5.848l57.224 52.045c10.194 9.273 26.482 8.856 36.256-0.836l98.996-98.828c9.773-9.773 10.109-26.064 0.835-36.256l-54.214-59.648c-9.273-10.191-12.787-27.401-7.769-38.262 5.010-10.861 26.73-41.436 40.511-42.020l83.377-4.093c13.782-0.669 25.059-12.448 25.059-26.232v-139.762c0-13.784-11.277-25.564-25.059-26.232l-83.456-3.926c-13.782-0.669-28.575-11.027-32.83-23.141-4.263-12.113-11.030-50.625-1.757-60.817l60.068-66.080c9.273-10.191 8.852-26.484-0.835-36.257l-98.83-98.83c-9.773-9.773-26.069-10.109-36.257-0.835l-65.579 59.654c-10.191 9.273-28.153 12.279-39.932 6.593-11.778-5.591-44.944-28.401-45.613-42.182l-4.344-91.982c-0.669-13.782-12.448-25.059-26.232-25.059h-139.846c-13.784 0-25.564 11.277-26.232 25.059l-4.344 91.894c-0.669 13.782-10.359 28.239-21.554 32.248-11.194 3.928-47.702 9.44-57.894 0.167l-68.586-62.319c-10.191-9.273-26.482-8.859-36.256 0.835l-98.828 98.822c-9.774 9.773-10.109 26.069-0.836 36.259l60.149 66.164c9.273 10.192 11.863 28.653 5.848 41.018l-10.109 23.892c-4.679 12.948-19.799 24.059-33.583 24.728l-86.213 4.093zM513.421 255.107c110.356 0 199.911 89.471 199.911 199.911s-89.472 199.911-199.911 199.911c-110.357 0-199.911-89.472-199.911-199.911s89.471-199.911 199.911-199.911z" />
<glyph unicode="&#xe91e;" glyph-name="dot-circle" d="M512 182.154c146.823 0 265.846 119.024 265.846 265.846s-119.024 265.846-265.846 265.846c-146.823 0-265.846-119.024-265.846-265.846s119.023-265.846 265.846-265.846zM992 448c0 265.097-214.899 480-480 480-265.097 0-480-214.903-480-480 0-265.101 214.903-480 480-480 265.101 0 480 214.899 480 480zM888.615 448c0-207.998-168.617-376.615-376.615-376.615s-376.615 168.617-376.615 376.615c0 207.998 168.617 376.615 376.615 376.615s376.615-168.617 376.615-376.615z" />
<glyph unicode="&#xe91f;" glyph-name="angle-double-down" d="M44.104 431.796c17.607 19.758 47.955 21.619 67.709 4.009l400.102-355.788 400.243 355.788c19.754 17.611 50.105 15.893 67.71-4.009 17.612-19.758 15.892-50.111-4.010-67.721l-431.877-383.995c-18.179-16.179-45.521-16.179-63.845 0l-432.024 383.995c-19.754 17.61-21.615 47.963-4.008 67.721zM44.104 911.8c17.607 19.758 47.955 21.62 67.709 4.009l400.102-355.787 400.243 355.787c19.754 17.61 50.105 15.893 67.71-4.009 17.612-19.758 15.892-50.111-4.010-67.721l-431.877-383.992c-18.179-16.179-45.521-16.179-63.845 0l-432.024 383.992c-19.754 17.61-21.615 47.963-4.008 67.721z" />
<glyph unicode="&#xe920;" glyph-name="equals" d="M899.619 538.794h-775.238c-28.845 0-52.381 23.537-52.381 52.381s23.537 52.381 52.381 52.381h775.238c28.776 0 52.381-23.537 52.381-52.381s-23.537-52.381-52.381-52.381zM899.619 252.444h-775.238c-28.845 0-52.381 23.537-52.381 52.381s23.537 52.381 52.381 52.381h775.238c28.776 0 52.381-23.537 52.381-52.381s-23.537-52.381-52.381-52.381z" />
<glyph unicode="&#xe921;" glyph-name="exclamation-circle" d="M512 928c-265.059 0-480-214.941-480-480 0-265.063 214.941-480 480-480 265.063 0 480 214.937 480 480 0 265.059-214.937 480-480 480zM560.249 111.003c-12.842-12.221-27.803-18.329-45.008-18.329-20.197 0-36.78 6.232-49.746 18.579-12.966 12.339-19.449 27.175-19.449 44.381 0 18.078 6.484 33.29 19.449 45.507s28.8 18.327 47.501 18.327c18.452 0 34.161-6.109 47.127-18.327s19.449-27.429 19.449-45.507c-0.125-17.575-6.484-32.419-19.325-44.632zM579.699 396.010c-1.869-49.122-32.416-89.268-67.948-89.268s-66.078 40.146-67.823 89.268l-11.72 318.047c-1.869 49.122 34.037 89.268 79.792 89.268s81.662-40.146 79.793-89.268l-12.094-318.047z" />
<glyph unicode="&#xe922;" glyph-name="exclamation-triangle" d="M511.958 831.935c4.127 0 14.568-1.179 20.798-12.041l415.637-719.956c6.235-10.868 2.107-20.38 0-24-2.1-3.62-8.246-12.045-20.798-12.045h-831.277c-12.547 0-18.694 8.425-20.798 12.045s-6.231 13.132 0 24l415.639 720.040c6.231 10.862 16.673 11.957 20.798 11.957zM511.958 867.975c-20.209 0-40.417-10.020-51.954-29.977l-415.639-719.959c-23.073-40.001 5.81-90.013 51.954-90.013h831.366c46.138 0 75.025 50.012 51.95 90.013l-415.721 719.959c-11.536 19.956-31.746 29.977-51.955 29.977zM474.149 198.623c0 10.273 3.706 18.777 11.031 25.767 7.325 6.905 16.335 10.358 26.861 10.358 10.441 0 19.283-3.453 26.609-10.358s11.031-15.493 11.031-25.767c0-9.936-3.621-18.273-10.862-25.262-7.241-6.905-15.747-10.357-25.514-10.357-11.452 0-20.798 3.536-28.124 10.525s-11.031 15.325-11.031 25.093zM511.536 565.002c25.851 0 46.23-22.737 45.135-50.523l-6.82-179.864c-1.095-27.788-18.356-50.523-38.482-50.523s-37.387 22.737-38.397 50.523l-6.652 179.864c-1.011 27.788 19.367 50.523 45.219 50.523z" />
<glyph unicode="&#xe923;" glyph-name="external-link-alt" d="M732.546-31.445h-540.221c-84.364 0-153.062 68.693-153.062 153.058v540.223c0 84.364 68.698 153.062 153.062 153.062h140.817c24.85 0 45.018-20.169 45.018-45.018s-20.168-45.018-45.018-45.018h-140.817c-34.753 0-63.025-28.271-63.025-63.025v-540.223c0-34.753 28.271-63.021 63.025-63.021h540.221c34.752 0 63.026 28.267 63.026 63.021v142.801c0 24.85 20.166 45.018 45.015 45.018 24.856 0 45.022-20.168 45.022-45.018v-142.801c0-84.365-68.701-153.058-153.063-153.058zM964.476 908.538c-10.807 11.795-26.202 18.908-42.862 18.908h-402.731c-32.053 0-59.965-24.67-60.955-56.723-0.991-33.134 25.57-60.325 58.524-60.325h242.109c8.009 0 12.068-9.724 6.392-15.396l-506.006-505.917c-22.87-22.869-22.87-59.874 0-82.743 11.434-11.431 26.38-17.103 41.417-17.103s29.983 5.672 41.417 17.103l510.508 510.509c5.672 5.672 15.395 1.621 15.395-6.392v-208.165c0-32.053 24.674-59.965 56.723-60.955 33.133-0.991 60.33 25.57 60.33 58.524v364.559c-0.095 17.647-7.927 33.404-20.261 44.118z" />
<glyph unicode="&#xe924;" glyph-name="eye-slash" d="M1016.706 457.155l-97.012 117.496c20.897 23.224 40.747 48.138 59.116 75.163 13.091 19.319 8.129 45.499-11.193 58.696-19.314 13.090-45.497 8.128-58.691-11.19-98.706-145.366-241.434-228.658-391.656-228.658s-292.948 83.292-391.653 228.553c-13.091 19.318-39.377 24.28-58.695 11.19s-24.28-39.377-11.19-58.696c18.474-27.13 38.427-52.256 59.434-75.585l-107.679-127.314c-11.296-13.302-9.607-33.36 3.695-44.655 6.017-4.962 13.196-7.389 20.48-7.389 8.973 0 17.946 3.8 24.175 11.19l104.194 123.091c36.738-33.465 76.325-61.546 118.025-83.715l-84.032-151.383c-8.446-15.307-2.955-34.521 12.352-43.072 4.75-2.639 10.029-3.905 15.307-3.905 11.084 0 21.958 5.912 27.764 16.257l86.459 155.605c48.138-18.685 98.388-30.192 149.799-33.57v-180.52c0-17.524 14.146-31.67 31.67-31.67s31.67 14.146 31.67 31.67v180.52c46.556 2.955 92.266 12.668 136.287 28.397l89.416-160.989c5.806-10.451 16.575-16.257 27.761-16.257 5.175 0 10.453 1.267 15.313 4.011 15.305 8.446 20.795 27.765 12.351 43.072l-86.144 155.183c46.555 23.225 90.469 53.84 131.114 90.788l93.003-112.64c6.231-7.601 15.313-11.507 24.387-11.507 7.073 0 14.249 2.428 20.165 7.284 13.304 11.084 15.202 31.037 4.009 44.55z" />
<glyph unicode="&#xe925;" glyph-name="eye" d="M512.003 117.004c-193.070 0-374.957 104.64-498.878 287.098-17.573 25.788-17.573 61.961 0 87.749 123.92 182.344 305.808 286.98 498.878 286.98s374.954-104.636 498.874-287.094c17.573-25.788 17.573-61.961 0-87.749-123.92-182.344-305.804-286.984-498.874-286.984zM93.799 447.919c106.462-152.447 258.454-239.625 418.204-239.625s311.742 87.179 418.206 239.625c-106.464 152.448-258.456 239.626-418.206 239.626s-311.742-87.179-418.204-239.626zM538.242 663.124c-57.739 6.847-111.483-9.243-153.703-40.166-7.188-5.248-5.363-16.545 3.081-19.626 28.527-10.612 48.153-39.71 44.045-72.687-3.652-30.010-27.614-54.657-57.51-59.108-22.023-3.309-42.562 3.994-57.054 17.573-6.732 6.276-17.458 2.282-18.942-6.732-4.564-27.842-3.994-57.282 4.222-87.977 24.305-91.857 106.12-159.408 201.058-163.059 132.022-5.135 239.054 107.831 224.106 241.679-11.296 98.703-90.601 178.464-189.304 190.103z" />
<glyph unicode="&#xe926;" glyph-name="female" d="M511.051 595.911c-98.198 0-177.802 81.237-177.802 181.448s79.605 181.449 177.802 181.449c98.198 0 177.802-81.237 177.802-181.449s-79.604-181.448-177.802-181.448zM594.488 488.991l229.682-405.992c36.639-64.802-9.146-145.808-82.489-145.808h-459.363c-73.343 0-119.128 81.006-82.488 145.808l229.682 405.992c36.64 64.803 128.272 64.803 164.975 0z" />
<glyph unicode="&#xe927;" glyph-name="file-excel" d="M657.888 615.428h263.468c5.887 0 8.798 7.204 4.504 11.291l-309.284 294.956c-4.159 3.949-11.021 1.039-11.021-4.711v-249.237c0-28.747 23.567-52.3 52.333-52.3zM637.024 582.939c-55.729 0-68.067 31.31-68.067 68.024v275.006h-417.414c-30.498 0-55.452-24.937-55.452-55.417v-845.105c0-30.481 24.953-55.416 55.452-55.416h720.873c30.501 0 55.454 24.935 55.454 55.416v557.493h-290.846zM591.067 122.566c-2.356 0-4.575 1.247-5.892 3.257l-75.831 120.249h-2.98l-76.593-120.32c-1.247-2.009-3.466-3.187-5.822-3.187h-101.546c-5.545 0-8.872 6.232-5.753 10.807l124.143 183.011c1.594 2.355 1.594 5.403 0 7.759l-113.746 170.198c-3.050 4.572 0.208 10.807 5.753 10.807h110.557c2.356 0 4.644-1.247 5.892-3.255l27.935-44.68c4.991-7.966 10.605-17.11 16.843-27.362s13.377-21.613 21.349-34.081h2.981l50.946 78.622 16.705 27.362c1.247 2.078 3.535 3.325 5.892 3.325h101.408c5.546 0 8.873-6.235 5.754-10.807l-115.132-169.436c-1.594-2.355-1.594-5.403 0-7.759l122.826-183.774c3.050-4.575-0.208-10.807-5.754-10.807l-109.934 0.070z" />
<glyph unicode="&#xe928;" glyph-name="file-image" d="M657.888 615.428h263.468c5.887 0 8.798 7.204 4.504 11.291l-309.284 294.956c-4.159 3.949-11.021 1.039-11.021-4.711v-249.237c0-28.747 23.567-52.3 52.333-52.3zM637.024 582.939c-55.729 0-68.067 31.31-68.067 68.024v275.006h-417.414c-30.498 0-55.452-24.937-55.452-55.417v-845.105c0-30.481 24.953-55.416 55.452-55.416h720.873c30.501 0 55.454 24.935 55.454 55.416v557.493h-290.846zM352.555 572.686c42.143 0 76.246-34.081 76.246-76.198s-34.103-76.198-76.246-76.198c-42.143 0-76.246 34.081-76.246 76.198s34.103 76.198 76.246 76.198zM777.803 122.424h-531.577c-4.505 0-7.694 4.78-6.030 9.355 13.377 37.82 65.156 177.678 97.11 177.678 37.014 0 47.619-173.18 105.774-55.419 35.905 72.668 69.8 118.941 90.456 143.739 21.071 25.284 55.382 33.804 83.732 18.704 85.743-45.788 152.287-240.304 166.632-284.912 1.458-4.504-1.664-9.143-6.098-9.143z" />
<glyph unicode="&#xe929;" glyph-name="heat-map" d="M969.753 846.701h-915.391c-29.917 0-54.362-24.284-54.362-54.006v-689.392c0-29.721 24.444-54.003 54.362-54.003h915.272c29.92 0 54.365 24.282 54.365 54.003v689.392c0.118 29.721-24.445 54.006-54.247 54.006zM322.888 383.24c0-7.128-5.837-12.927-13.013-12.927h-242.257c-7.175 0-13.013 5.799-13.013 12.927v147.762c0 7.128 5.837 12.928 13.013 12.928h242.257c7.175 0 13.013-5.8 13.013-12.928v-147.762zM322.888 621.857c0-7.127-5.837-12.927-13.013-12.927h-242.257c-7.175 0-13.013 5.8-13.013 12.927v147.762c0 7.128 5.837 12.927 13.013 12.927h242.257c7.175 0 13.013-5.799 13.013-12.927v-147.762zM646.505 144.744c0-7.127-5.837-12.927-13.014-12.927h-242.257c-7.175 0-13.013 5.8-13.013 12.927v147.641c0 7.128 5.837 12.927 13.013 12.927h242.257c7.176 0 13.014-5.799 13.014-12.927v-147.641zM646.505 383.24c0-7.128-5.837-12.927-13.014-12.927h-242.257c-7.175 0-13.013 5.799-13.013 12.927v147.762c0 7.128 5.837 12.928 13.013 12.928h242.257c7.176 0 13.014-5.8 13.014-12.928v-147.762zM970.123 144.744c0-7.127-5.837-12.927-13.014-12.927h-242.257c-7.175 0-13.013 5.8-13.013 12.927v147.641c0 7.128 5.837 12.927 13.013 12.927h242.257c7.177 0 13.014-5.799 13.014-12.927v-147.641z" />
<glyph unicode="&#xe92a;" glyph-name="info-circle" d="M512 928c-265.077 0-480-214.923-480-480s214.923-480 480-480c265.078 0 480 214.922 480 480s-214.922 480-480 480zM455.967 701.127c3.135 7.837 7.837 14.106 13.323 19.591s10.972 9.404 18.809 12.539c7.837 3.135 15.673 5.485 24.294 5.485s16.457-2.35 24.294-5.485c7.837-3.135 14.106-7.053 19.591-12.539s10.188-11.754 13.323-19.591c3.135-7.838 5.486-15.674 5.486-24.294s-2.351-16.458-5.486-23.511c-3.135-7.053-7.837-14.106-13.323-19.592s-11.754-10.188-19.591-13.323c-7.837-3.134-15.674-4.702-24.294-4.702s-16.458 1.567-24.294 4.702c-7.838 3.135-13.323 7.838-18.809 13.323s-10.188 12.539-13.323 19.592c-3.134 7.053-4.702 14.889-4.702 23.511s1.568 16.457 4.702 24.294zM619.754 157.261h-215.51v46.234c0 13.323 6.269 21.159 19.591 24.294 0.784 0 2.351 0.784 4.703 0.784 2.35 0.784 6.269 1.567 11.754 2.351s14.106 2.35 23.511 3.918v246.858c-9.404 1.567-18.024 3.135-23.511 3.918s-9.404 2.351-11.754 2.351c-2.351 0-3.919 0.784-4.703 0.784-13.323 3.135-19.591 10.972-19.591 24.294v46.237h155.95v-324.441c9.404-1.567 18.024-3.135 23.511-3.918s9.404-2.351 11.754-2.351c2.351 0 3.918-0.784 4.702-0.784 13.323-3.135 19.591-10.972 19.591-24.294v-46.234z" />
<glyph unicode="&#xe92b;" glyph-name="list" d="M187.135 679.359h-105.384c-12.308 0-22.404 9.997-22.404 22.186v104.36c0 12.188 10.096 22.185 22.404 22.185h105.34c12.348 0 22.444-9.997 22.444-22.185v-104.316c0-12.229-10.095-22.23-22.403-22.23zM948.387 691.753h-609.936c-8.927 0-16.27 7.229-16.27 16.113v83.455c0 8.882 7.3 16.113 16.27 16.113h609.936c8.927 0 16.266-7.229 16.266-16.113v-83.455c0-8.882-7.298-16.113-16.266-16.113zM948.387 390.164h-609.936c-8.927 0-16.27 7.229-16.27 16.113v83.455c0 8.844 7.3 16.113 16.27 16.113h609.936c8.927 0 16.266-7.229 16.266-16.113v-83.455c0-8.882-7.298-16.113-16.266-16.113zM948.387 84.428h-609.936c-8.927 0-16.27 7.227-16.27 16.113v83.455c0 8.844 7.3 16.113 16.27 16.113h609.936c8.927 0 16.266-7.229 16.266-16.113v-83.455c0-8.886-7.298-16.113-16.266-16.113zM187.135 373.635h-105.384c-12.308 0-22.404 9.997-22.404 22.185v104.361c0 12.188 10.096 22.185 22.404 22.185h105.34c12.348 0 22.403-9.997 22.403-22.185v-104.316c0.041-12.229-10.054-22.23-22.359-22.23zM187.135 67.911h-105.384c-12.308 0-22.404 10-22.404 22.187v104.316c0 12.229 10.096 22.186 22.404 22.186h105.34c12.348 0 22.403-9.997 22.403-22.186v-104.316c0.041-12.187-10.054-22.187-22.359-22.187z" />
<glyph unicode="&#xe92c;" glyph-name="male" d="M512.922 596.257c96.206 0 174.195 81.427 174.195 181.871s-77.989 181.871-174.195 181.871c-96.206 0-174.197-81.427-174.197-181.871s77.991-181.871 174.197-181.871zM592.811-15.285l225.025 406.935c35.899 64.958-8.961 146.148-80.813 146.148h-450.052c-71.794 0-116.712-81.19-80.815-146.148l225.025-406.935c35.96-64.953 125.733-64.953 161.63 0z" />
<glyph unicode="&#xe92d;" glyph-name="map-marker-alt" d="M392.217 147.52c12.059-15.36 23.735-29.663 34.838-42.813 2.488-2.88 0.574-7.298-3.158-7.778-45.365-5.951-77.235-15.649-95.323-24.191-7.274-3.458-7.657-13.92-0.288-17.378 27.181-12.863 85.753-28.604 174.856-29.663 3.35 0 6.508-0.098 9.953-0.098 2.679 0 5.168 0.098 7.848 0.098 90.251 0.863 149.589 16.703 176.961 29.663 7.273 3.458 6.989 13.92-0.383 17.378-18.472 8.738-51.203 18.623-97.812 24.578-3.732 0.48-5.551 4.8-3.158 7.773 11.006 13.151 22.683 27.551 34.838 42.911 1.148 1.44 2.872 2.116 4.689 1.827 71.303-12.578 135.329-38.209 135.329-85.827 0-75.743-162.414-96-258.408-96s-258.408 20.258-258.408 96c0 47.040 62.497 72.676 132.936 85.347 1.723 0.289 3.541-0.387 4.689-1.827zM193.633 608.704c0 168.096 129.49 305.952 293.915 318.432 8.135 0.576 16.27 0.864 24.501 0.864s16.366-0.384 24.501-1.056v0.096l1.435-0.192c14.644-1.152 29.095-3.36 43.163-6.432 142.508-31.68 249.219-159.168 249.219-311.712 0-2.4 0-4.8-0.098-7.2 0.098-2.4 0.098-4.8 0.098-7.2 0-16.608-2.587-34.656-7.273-53.856-5.265-24.384-13.303-47.712-23.833-69.6-72.637-171.55-249.887-382.559-283.001-400.99-1.722-0.96-3.158-1.347-4.307-1.347s-2.679 0.387-4.498 1.44c-36.942 21.311-215.243 235.009-285.397 406.657-8.805 19.488-15.791 40.032-20.577 61.44-4.977 20.064-7.848 38.976-7.848 56.256 0 2.4 0 4.8 0.096 7.2 0 2.4-0.096 4.8-0.096 7.2zM512.048 470.176c4.594 0 9.188 0.192 13.686 0.576 13.973 1.248 27.277 4.32 39.909 9.024 58.477 21.888 100.205 78.336 100.205 144.672s-41.728 122.88-100.205 144.672c-10.433 3.84-21.342 6.528-32.732 8.064-6.891 0.96-13.878 1.536-20.96 1.536-84.987 0-153.896-69.12-153.896-154.368 0.096-85.056 69.005-154.176 153.992-154.176z" />
<glyph unicode="&#xe92e;" glyph-name="minus-square" d="M879.067 823.273c4.541 0 8.204-3.666 8.204-8.203v-734.137c0-4.541-3.663-8.204-8.204-8.204h-734.137c-4.538 0-8.203 3.663-8.203 8.204v734.137c0 4.538 3.666 8.203 8.203 8.203h734.137zM879.067 928h-734.137c-62.4 0-112.93-50.531-112.93-112.93v-734.137c0-62.4 50.531-112.933 112.93-112.933h734.137c62.4 0 112.933 50.533 112.933 112.933v734.137c0 62.4-50.533 112.93-112.933 112.93zM749.383 373.528h-474.764c-40.96 0-74.472 33.512-74.472 74.472s33.512 74.473 74.472 74.473h474.764c40.956 0 74.472-33.513 74.472-74.473s-33.516-74.472-74.472-74.472z" />
<glyph unicode="&#xe92f;" glyph-name="new" horiz-adv-x="2048" d="M1908.397 960h-1768.793c-76.782 0-139.604-62.355-139.604-138.565v-746.872c0-76.209 62.822-138.563 139.604-138.563h1768.793c76.784 0 139.603 62.354 139.603 138.563v746.872c0 76.211-62.818 138.565-139.603 138.565zM665.914 181.261h-104.703l-147.981 364.427-76.783-364.427h-104.703l113.080 543.177h104.704l147.981-363.042 78.178 363.042h104.703l-114.475-543.177zM1165.698 344.768h-269.438c0-4.157 0-6.928 0-9.699 0-26.328 6.979-47.113 22.339-63.741s33.508-23.556 54.445-23.556c34.903 0 62.818 18.014 83.763 55.427l96.327-16.628c-18.148-38.799-43.276-66.512-75.39-85.91-30.712-19.399-65.607-29.101-104.7-29.101-53.051 0-96.327 16.63-129.835 49.886-33.501 33.256-50.255 77.596-50.255 133.022 0 54.041 15.36 101.153 44.67 144.108 40.487 56.812 99.123 85.911 175.907 85.911 48.861 0 86.552-15.243 115.87-44.342s43.276-72.054 43.276-124.709c0-27.713-1.394-49.884-6.979-70.669zM1619.417 181.261h-100.517l-19.543 250.804-121.462-250.804h-99.115l-50.255 393.526h94.925l27.924-263.275 124.251 263.275h97.721l13.958-263.275 122.856 263.275h107.496l-198.239-393.526zM1002.37 508.311c-22.331 0-41.882-8.313-60.030-24.941s-29.31-41.57-36.297-73.44h167.526c0 4.157 0 8.314 0 11.085 0 29.099-6.979 51.269-19.543 65.126-11.169 13.857-29.318 22.17-51.657 22.17z" />
<glyph unicode="&#xe930;" glyph-name="person-cog" d="M370.931 443.144c133.745 0 242.166 108.422 242.166 242.166s-108.421 242.166-242.166 242.166c-133.744 0-242.166-108.422-242.166-242.166s108.421-242.166 242.166-242.166zM920.543 198.852c15.272 0.739 27.771 13.795 27.771 29.066v42.028c0 15.275-12.499 28.327-27.771 29.067l-14.627 0.648c-15.272 0.742-29.624 6.573-31.933 12.96-2.315 6.388-1.671 31.659 8.606 42.952l7.868 8.609c10.277 11.293 9.814 29.345-0.926 40.176l-29.711 29.716c-10.835 10.83-28.885 11.201-40.177 0.925l-8.888-8.054c-11.298-10.275-25.455-16.385-31.383-13.515-5.927 2.777-23.052 21.105-23.79 36.38l-0.463 10.182c-0.739 15.275-13.792 27.772-29.067 27.772h-42.028c-15.274 0-28.327-12.497-29.067-27.772l-0.462-10.182c-0.742-15.275-6.943-29.808-13.793-32.215-6.85-2.499-33.14-2.499-44.434 7.776l-7.407 6.758c-11.293 10.275-29.345 9.812-40.176-0.925l-29.715-29.716c-10.831-10.83-11.201-28.882-0.925-40.176l7.868-8.609c10.275-11.293 16.571-25.087 13.978-30.733s-20.458-21.569-35.639-22.31l-13.145-0.648c-15.275-0.741-27.771-13.792-27.771-29.067v-42.028c0-15.272 12.497-28.328 27.771-29.066l13.145-0.652c15.275-0.739 29.53-6.384 31.752-12.587s1.203-30.919-9.073-42.305l-10.83-11.942c-10.275-11.291-9.813-29.348 0.925-40.177l29.715-29.718c10.831-10.827 28.882-11.197 40.176-0.926l11.665 10.646c11.293 10.277 25.457 16.292 31.567 13.426 6.109-2.873 23.42-21.293 24.161-36.565l0.833-17.5c0.741-15.272 13.792-27.771 29.067-27.771h42.027c15.275 0 28.326 12.499 29.071 27.771l0.644 17.5c0.739 15.272 6.015 29.435 11.755 31.47 5.74 2.041 29.442 0.282 40.733-9.995l13.238-12.036c11.298-10.271 29.348-9.807 40.177 0.926l29.718 29.718c10.827 10.827 11.197 28.879 0.926 40.177l-10.929 11.942c-10.271 11.291-16.104 25.824-12.955 32.215 3.148 6.384 22.032 24.898 37.21 25.549l14.721 0.832zM705.038 146.27c-56.746 0-102.754 46.009-102.754 102.753 0 56.748 46.007 102.755 102.754 102.755s102.757-46.007 102.757-102.755c0-56.744-46.009-102.753-102.757-102.753zM621.346 14.068l-1.389 30.274-21.014-19.165c-8.794-7.962-20.18-12.405-32.214-12.405-12.868 0-24.809 5.001-33.881 13.983l-50.821 50.817c-18.051 18.050-18.792 47.117-1.574 66.008l18.699 20.548-24.716 1.202c-25.55 1.208-45.545 22.219-45.545 47.769v71.836c0 25.55 19.996 46.562 45.545 47.766l22.124 1.018-14.071 15.552c-6.017 6.665-9.813 14.534-11.479 22.772-31.381 14.811-65.078 22.68-100.069 22.68-153.483 0-283.36-149.591-295.209-390.004-0.925-19.621 12.034-36.195 28.327-36.195h533.765c4.628 0 8.98 1.389 12.775 3.706-16.571 6.854-28.419 22.77-29.253 41.842z" />
<glyph unicode="&#xe931;" glyph-name="personal-info" d="M512 836.571c212.65 0 385.605-174.285 385.605-388.571s-172.955-388.573-385.605-388.573c-212.65 0-385.605 174.287-385.605 388.573s172.955 388.571 385.605 388.571zM512 928c-263.119 0-476.336-214.857-476.336-480s213.217-480 476.336-480c263.121 0 476.336 214.857 476.336 480s-213.216 480-476.336 480zM506.574 464.118c74.475 0 134.848 60.838 134.848 135.886s-60.374 135.885-134.848 135.885c-74.475 0-134.848-60.838-134.848-135.885s60.374-135.886 134.848-135.886zM685.739 197.94c10.888 0 19.621 9.371 19.054 20.343-7.939 134.857-95.153 218.743-198.246 218.743s-190.194-83.886-198.134-218.857c-0.68-10.972 8.053-20.343 19.054-20.343l358.273 0.114z" />
<glyph unicode="&#xe932;" glyph-name="plus" d="M913.849 526.15h-323.699v323.7c0 43.2-34.95 78.15-78.15 78.15s-78.15-34.95-78.15-78.15v-323.7h-323.7c-43.2 0-78.15-34.95-78.15-78.15s34.95-78.15 78.15-78.15h323.7v-323.699c0-43.2 34.95-78.151 78.15-78.151s78.15 34.951 78.15 78.151v323.699h323.699c43.2 0 78.151 34.95 78.151 78.15s-34.951 78.15-78.151 78.15z" />
<glyph unicode="&#xe933;" glyph-name="project-info" d="M658.045 959.996h-292.093c-14.095 0-25.5-11.585-25.5-25.901v-39.747c0-14.316 11.405-25.901 25.5-25.901h292.185c14.095 0 25.5 11.585 25.5 25.901v39.747c-0.093 14.316-11.499 25.901-25.593 25.901zM511.999 890.675c-12.797 0-23.183 10.549-23.183 23.547s10.386 23.547 23.183 23.547c12.796 0 23.182-10.549 23.182-23.547s-10.386-23.547-23.182-23.547zM927.232 906.127h-197.322c-5.1 0-9.273-4.238-9.273-9.419 0-31.081-25.036-56.512-55.636-56.512h-315.274c-25.593 0-46.364 21.098-46.364 47.093v9.419c0 5.18-4.173 9.419-9.273 9.419h-197.325c-19.009 0-34.495-15.635-34.495-35.038v-900.049c0-19.401 15.486-35.037 34.495-35.037h830.467c19.103 0 34.498 15.727 34.498 35.037v900.049c0 19.403-15.485 35.038-34.498 35.038zM453.21 690.815c3.246 8.383 8.253 15.070 14.002 20.91s11.499 9.984 19.751 13.374c8.253 3.297 16.413 5.84 25.5 5.84s17.247-2.543 25.5-5.84c8.253-3.296 14.836-7.535 20.585-13.374s10.664-12.527 14.002-20.91c3.246-8.382 5.75-16.671 5.75-25.902s-2.504-17.519-5.75-25.053c-3.245-7.535-8.252-15.070-14.002-20.91s-12.332-10.832-20.585-14.222c-8.253-3.297-16.413-4.992-25.5-4.992s-17.247 1.695-25.5 4.992c-8.252 3.296-14.002 8.382-19.751 14.222s-10.663 13.375-14.002 20.91c-3.246 7.535-4.915 15.824-4.915 25.053s1.669 17.519 4.915 25.902zM625.035 111.28h-226.070v49.263c0 14.225 6.583 22.514 20.585 25.904 0.835 0 2.504 0.844 4.915 0.844 2.503 0.851 6.583 1.695 12.332 2.546 5.75 0.844 14.837 2.539 24.666 4.144v262.967c-9.829 1.696-18.916 3.297-24.666 4.144s-9.829 2.543-12.332 2.543c-2.504 0-4.080 0.848-4.915 0.848-14.002 3.296-20.585 11.679-20.585 25.901v49.26h163.572v-345.664c9.829-1.695 18.916-3.3 24.666-4.144 5.749-0.851 9.829-2.546 12.332-2.546s4.080-0.844 4.915-0.844c14.002-3.39 20.585-11.679 20.585-25.904v-49.263z" />
<glyph unicode="&#xe934;" glyph-name="search" d="M973.285 56.945l-225.829 227.097c51.673 67.438 82.441 151.819 82.441 243.534 0 220.689-177.781 399.483-397.121 399.483s-397.038-178.794-397.038-399.399c0-220.605 177.782-399.399 397.038-399.399 91.125 0 175.085 30.937 242.1 82.948l225.832-227.18c10.031-10.119 23.183-15.087 36.249-15.087 13.145 0 26.217 5.056 36.249 15.087 20.062 20.062 20.062 52.772 0.081 72.914zM432.775 227.564c-164.463 0-298.242 134.622-298.242 300.096s133.779 300.097 298.242 300.097c164.464 0 298.243-134.623 298.243-300.097 0.084-165.475-133.779-300.096-298.243-300.096z" />
<glyph unicode="&#xe935;" glyph-name="sign-out-alt" d="M894.314 478.281l-305.197 266.514c-25.745 22.514-65.78 4.114-65.78-30.286v-106.514h-187.245c-21.889 0-39.581-17.828-39.581-39.886v-240.343c0-22.057 17.692-39.885 39.581-39.885h187.245v-106.511c0-34.289 40.035-52.8 65.78-30.288l305.197 266.513c18.255 16.114 18.255 44.685 0 60.686zM874.924 265.83v-149.256c0-18.973-15.199-34.289-34.025-34.289h-657.798c-18.826 0-34.024 15.316-34.024 34.289v662.856c0 18.971 15.197 34.286 34.024 34.286h657.798c18.826 0 34.025-15.315 34.025-34.286v-149.257c0-8.115 4.309-15.657 11.337-19.772l85.066-72.343c7.592-4.343 17.009 1.143 17.009 9.943v231.428c0 82.058-66.006 148.571-147.437 148.571h-657.798c-81.43 0-147.437-66.515-147.437-148.571v-662.856c0-82.061 66.007-148.573 147.437-148.573h657.798c81.431 0 147.437 66.511 147.437 148.573v231.542c0 8.799-9.417 14.286-17.009 9.942l-85.066-72.457c-7.028-4-11.337-11.543-11.337-19.772z" />
<glyph unicode="&#xe936;" glyph-name="skylens-basic" d="M976.802 56.231l-227.545 227.654c51.998 67.542 83.087 152.114 83.087 244 0 220.913-179.202 400.114-400.117 400.114s-400.228-179.2-400.228-400.228c0-221.029 179.2-400.227 400.228-400.227 91.886 0 176.457 31.082 244 83.083l227.54-227.542c10.058-10.058 23.32-15.087 36.576-15.087s26.511 5.029 36.569 15.087c20.116 20.227 20.116 53.029-0.111 73.145zM432.228 227.2c-165.714 0-300.572 134.858-300.572 300.572s134.858 300.572 300.572 300.572c165.714 0 300.572-134.858 300.572-300.572s-134.858-300.572-300.572-300.572zM534.631 651.21c-57.258 1.6-93.828-40.458-98.514-92.343-0.113-0.685-0.914-0.685-1.028 0-4.687 51.773-41.258 93.943-98.514 92.343-59.886-1.714-107.086-54.514-104.457-114.4 5.943-135.772 195.657-217.028 203.543-217.028s197.486 81.257 203.543 217.028c2.514 59.887-44.686 112.687-104.572 114.4z" />
<glyph unicode="&#xe937;" glyph-name="skylens-poi" d="M976.851 56.307l-227.583 227.583c52.053 67.531 83.090 152.109 83.090 243.972 0 220.964-179.172 400.135-400.219 400.135s-400.135-179.171-400.135-400.135c0-220.965 179.171-400.139 400.135-400.139 91.862 0 176.44 31.038 243.972 83.091l227.583-227.585c10.095-10.095 23.343-15.146 36.583-15.146s26.481 5.051 36.575 15.146c20.196 20.108 20.196 52.881 0 73.078zM432.138 227.284c-165.764 0-300.578 134.813-300.578 300.578s134.813 300.578 300.578 300.578c165.765 0 300.578-134.813 300.578-300.578s-134.813-300.578-300.578-300.578zM488.24 386.827c-5.545-7.035-10.924-13.572-15.972-19.531-1.159-1.324-0.248-3.31 1.407-3.559 20.772-2.731 35.42-7.117 43.696-11.090 3.31-1.573 3.476-6.373 0.165-7.945-12.413-5.876-39.309-13.076-80.109-13.572-1.49 0-2.979-0.082-4.552-0.082-1.241 0-2.4 0-3.559 0.082-41.379 0.413-68.523 7.613-81.104 13.572-3.309 1.572-3.227 6.372 0.166 7.945 8.441 3.972 23.42 8.524 44.854 11.172 1.737 0.248 2.565 2.235 1.407 3.559-5.048 6.041-10.428 12.579-15.972 19.613-0.497 0.663-1.324 0.993-2.152 0.828-32.772-5.71-62.151-17.463-62.151-39.228 0-34.593 74.4-43.862 118.427-43.862s118.427 9.268 118.427 43.862c0 21.517-28.635 33.186-60.91 38.979-0.745 0.165-1.573-0.165-2.069-0.745zM579.271 597.533c0 76.8-59.337 139.779-134.73 145.489-3.724 0.248-7.448 0.413-11.172 0.413-3.807 0-7.532-0.165-11.256-0.496v0.082l-0.662-0.082c-6.704-0.579-13.324-1.572-19.779-2.979-65.379-14.483-114.289-72.745-114.289-142.427 0-1.076 0-2.235 0.082-3.31 0-1.076-0.082-2.152-0.082-3.31 0-7.531 1.159-15.807 3.31-24.579 2.4-11.091 6.124-21.765 10.924-31.779 33.269-78.372 114.537-174.786 129.682-183.227 0.745-0.413 1.49-0.579 1.987-0.579s1.241 0.165 2.068 0.662c16.966 9.766 98.648 107.42 130.758 185.792 4.056 8.938 7.2 18.291 9.435 28.055 2.317 9.186 3.559 17.793 3.559 25.655 0 1.076 0 2.235-0.082 3.31 0.165 1.076 0.248 2.152 0.248 3.31zM433.37 534.223c-2.152 0-4.221 0.082-6.291 0.248-6.372 0.579-12.496 1.987-18.29 4.138-26.813 10.013-45.931 35.834-45.931 66.123s19.117 56.11 45.931 66.123c4.8 1.737 9.765 2.979 14.979 3.724 3.144 0.413 6.372 0.745 9.6 0.745 38.979 0 70.509-31.614 70.509-70.51 0-39.063-31.613-70.592-70.509-70.592z" />
<glyph unicode="&#xe938;" glyph-name="skylens-ta" d="M976.851 56.307l-227.583 227.583c52.053 67.531 83.090 152.109 83.090 243.972 0 220.964-179.172 400.135-400.219 400.135s-400.135-179.171-400.135-400.135c0-220.965 179.171-400.139 400.135-400.139 91.862 0 176.44 31.038 243.972 83.091l227.583-227.585c10.095-10.095 23.343-15.146 36.583-15.146s26.481 5.051 36.575 15.146c20.196 20.108 20.196 52.881 0 73.078zM432.138 227.284c-165.764 0-300.578 134.813-300.578 300.578s134.813 300.578 300.578 300.578c165.765 0 300.578-134.813 300.578-300.578s-134.813-300.578-300.578-300.578zM433.381 515.121c53.887 0 97.572 43.684 97.572 97.572s-43.684 97.572-97.572 97.572c-53.887 0-97.573-43.684-97.573-97.572s43.685-97.572 97.573-97.572zM563.072 323.862c7.944 0 14.235 6.704 13.737 14.566-5.793 96.909-68.854 157.157-143.502 157.157s-137.71-60.248-143.503-157.157c-0.413-7.863 5.959-14.566 13.821-14.566h259.447z" />
<glyph unicode="&#xe939;" glyph-name="skylens-traffic" d="M976.851 56.307l-227.583 227.583c52.053 67.531 83.090 152.109 83.090 243.972 0 220.964-179.172 400.135-400.219 400.135s-400.135-179.171-400.135-400.135c0-220.965 179.171-400.139 400.135-400.139 91.862 0 176.44 31.038 243.972 83.091l227.583-227.585c10.095-10.095 23.343-15.146 36.583-15.146s26.481 5.051 36.575 15.146c20.196 20.108 20.196 52.881 0 73.078zM432.138 227.284c-165.764 0-300.578 134.813-300.578 300.578s134.813 300.578 300.578 300.578c165.765 0 300.578-134.813 300.578-300.578s-134.813-300.578-300.578-300.578zM277.627 304.818h-55.282c-9.104 0-16.551 7.448-16.551 16.551v182.067c0 9.104 7.448 16.551 16.551 16.551h55.282c9.103 0 16.551-7.448 16.551-16.551v-182.067c0-9.187-7.448-16.551-16.551-16.551zM427.914 304.815h-55.282c-9.103 0-16.551 7.448-16.551 16.551v248.275c0 9.103 7.448 16.551 16.551 16.551h55.282c9.104 0 16.551-7.448 16.551-16.551v-248.275c0-9.187-7.448-16.551-16.551-16.551zM578.21 304.82h-55.282c-9.104 0-16.551 7.448-16.551 16.551v339.308c0 9.104 7.448 16.551 16.551 16.551h55.282c9.103 0 16.551-7.448 16.551-16.551v-339.308c0-9.186-7.448-16.551-16.551-16.551z" />
<glyph unicode="&#xe93a;" glyph-name="smile-arrow" d="M512 868.531c231.887 0 420.532-188.645 420.532-420.531s-188.646-420.532-420.532-420.532c-231.887 0-420.531 188.646-420.531 420.532s188.645 420.531 420.531 420.531zM512 928c-265.104 0-480-214.896-480-480 0-265.108 214.896-480 480-480 265.108 0 480 214.892 480 480 0 265.104-214.892 480-480 480zM330.063 473.487c39.882 0 72.213 32.331 72.213 72.212s-32.331 72.213-72.213 72.213c-39.881 0-72.212-32.331-72.212-72.213s32.331-72.212 72.212-72.212zM710.923 473.487c39.881 0 72.21 32.331 72.21 72.212s-32.329 72.213-72.21 72.213c-39.882 0-72.213-32.331-72.213-72.213s32.331-72.212 72.213-72.212zM780.615 324.138c-3.692 7.603-10.658 13.168-19.070 14.951l-99.355 21.24c-14.91 3.186-29.564-6.329-32.75-21.24s6.329-29.564 21.239-32.75l49.783-10.62c-48.764-41.033-110.357-64.948-174.838-66.945-89.968-2.846-174.032 35.852-230.613 105.982-9.6 11.852-26.973 13.72-38.825 4.12s-13.72-26.974-4.12-38.825c65.288-80.878 161.204-126.673 264.51-126.673 3.568 0 7.179 0.044 10.79 0.17 74.718 2.297 146.123 29.355 203.469 75.742v-56.156c0-15.25 12.361-27.612 27.61-27.612s27.612 12.362 27.612 27.612v114.69c-0.089 6.116-2.082 11.723-5.442 16.312z" />
<glyph unicode="&#xe93b;" glyph-name="sort-down" d="M527.175 239.017l425.805 385.317c14 12.709 5.021 35.998-13.849 35.998h-851.611c-18.95 0-27.93-23.288-13.851-35.998l425.805-385.317c7.839-7.077 19.863-7.077 27.702 0z" />
<glyph unicode="&#xe93c;" glyph-name="sort-up" d="M498.411 654.622l-424.517-377.678c-14.044-12.526-5.238-35.756 13.589-35.756h849.031c18.83 0 27.637 23.23 13.589 35.756l-424.516 377.678c-7.743 6.908-19.434 6.908-27.177 0z" />
<glyph unicode="&#xe93d;" glyph-name="square" d="M879.067 72.729c4.541 0 8.204 3.663 8.204 8.204v734.137c0 4.538-3.663 8.203-8.204 8.203h-734.137c-4.538 0-8.203-3.666-8.203-8.203v-734.137c0-4.541 3.666-8.204 8.203-8.204h734.137zM879.067-32h-734.137c-62.4 0-112.93 50.533-112.93 112.933v734.137c0 62.4 50.531 112.93 112.93 112.93h734.137c62.4 0 112.933-50.531 112.933-112.93v-734.137c0-62.4-50.533-112.933-112.933-112.933z" />
<glyph unicode="&#xe93e;" glyph-name="start-flag" d="M84.476-31.659c24.887 0 45.185 20.37 45.185 45.184v868.949c0 24.887-20.299 45.185-45.185 45.185s-45.185-20.299-45.185-45.185v-868.949c0-24.814 20.299-45.184 45.185-45.184zM185.278 843.614v-539.372c0-14.459 14.32-24.539 27.946-19.603 82.931 29.961 326.098 110.738 389.148 52.137 82.793-76.885 301.418-48.105 364.884-37.816 10.080 1.669 17.454 10.357 17.454 20.576v525.816c0 13.348-12.305 23.218-25.308 20.368-56.165-12.304-197.562-33.716-343.128 20.229-161.068 59.645-363.079-3.545-417.163-22.662-8.272-2.99-13.833-10.845-13.833-19.673z" />
<glyph unicode="&#xe93f;" glyph-name="sync-alt" d="M956.144 794.881l-59.707-59.709c-89.095 116.575-228.414 191.448-385.742 191.448-234.098 0-429.336-166.807-474.829-386.687-1.895-8.53 4.739-17.060 14.217-17.060h132.687c8.53 0 16.112 5.687 18.007 13.269 40.754 132.686 163.963 229.358 309.918 229.358 112.783 0 212.298-57.814 270.109-145.956l-65.392-65.396c-12.321-12.321-3.791-32.224 13.268-32.224h240.734c7.583 0 14.215 4.738 17.057 11.373 0.945 2.844 1.898 4.739 1.898 7.582v240.732c0 17.059-20.853 25.589-32.224 13.268zM974.154 374.076h-132.69c-8.529 0-16.112-5.687-18.002-13.269-40.76-133.634-163.966-230.308-309.922-230.308-112.783 0-212.298 57.816-270.112 145.010l65.395 65.395c12.321 12.321 3.791 32.224-13.268 32.224h-240.732c-7.582 0-14.217-4.738-17.059-11.373-0.948-1.895-1.895-3.791-1.895-6.634v-240.734c0-17.057 19.903-25.585 32.224-13.269l59.709 59.715c89.090-116.579 228.411-191.453 385.738-191.453 234.098 0 429.336 166.805 474.829 386.688 0.945 9.477-5.686 18.007-14.215 18.007z" />
<glyph unicode="&#xe940;" glyph-name="tag" d="M470.135 938.661l-392.866 17.875c-23.627 1.093-43.594-17.209-44.687-40.789l-17.257-379.461c-0.523-11.314 3.47-22.39 11.124-30.806l504.156-552.124c15.925-17.446 42.976-18.684 60.423-2.759l403.754 368.623c17.446 15.925 18.684 42.976 2.759 60.423l-497.741 545.135c-7.654 8.367-18.303 13.406-29.665 13.881zM312.066 661.505c-33.943-30.995-86.569-28.571-117.517 5.325s-28.571 86.569 5.324 117.518c33.896 30.948 86.569 28.571 117.518-5.325s28.619-86.522-5.325-117.518z" />
<glyph unicode="&#xe941;" glyph-name="th-with-bar" d="M942.242 477.217h-348.338c-27.473 0-49.763 22.435-49.763 50.087v350.609c0 27.652 22.29 50.087 49.763 50.087h348.338c27.471 0 49.758-22.434 49.758-50.087v-350.609c0-27.652-22.287-50.087-49.758-50.087zM430.099-32h-348.337c-27.473 0-49.762 22.434-49.762 50.090v350.607c0 27.653 22.289 50.087 49.762 50.087h348.337c27.473 0 49.762-22.434 49.762-50.087v-350.607c0-27.655-22.289-50.090-49.762-50.090zM430.099 477.217h-348.337c-27.473 0-49.762 22.435-49.762 50.087v350.609c0 27.652 22.289 50.087 49.762 50.087h348.337c27.473 0 49.762-22.434 49.762-50.087v-350.609c0-27.652-22.289-50.087-49.762-50.087zM649.887-32h-87.084c-10.263 0-18.661 8.455-18.661 18.787v254.608c0 10.33 8.398 18.783 18.661 18.783h87.084c10.263 0 18.661-8.452 18.661-18.783v-254.608c0-10.331-8.398-18.787-18.661-18.787zM811.609-32h-87.087c-10.264 0-18.661 8.455-18.661 18.779v338.090c0 10.33 8.397 18.783 18.661 18.783h87.087c10.257 0 18.661-8.452 18.661-18.783v-338.090c0-10.324-8.404-18.779-18.661-18.779zM973.347-32h-87.087c-10.265 0-18.661 8.455-18.661 18.787v419.477c0 10.33 8.396 18.783 18.661 18.783h87.087c10.265 0 18.661-8.452 18.661-18.783v-419.477c0-10.331-8.396-18.787-18.661-18.787z" />
<glyph unicode="&#xe942;" glyph-name="th" d="M402.268 519.807h-325.504c-19.019 0-34.444 14.713-34.444 32.854v310.482c0 18.14 15.425 32.853 34.444 32.853h325.504c19.019 0 34.445-14.713 34.445-32.853v-310.482c0-18.141-15.424-32.854-34.445-32.854zM402.268 0.004h-325.504c-19.019 0-34.444 14.711-34.444 32.855v310.482c0 18.14 15.425 32.853 34.444 32.853h325.504c19.019 0 34.445-14.713 34.445-32.853v-310.482c0-18.144-15.424-32.855-34.445-32.855zM947.235 519.807h-325.506c-19.019 0-34.445 14.713-34.445 32.854v310.482c0 18.14 15.425 32.853 34.445 32.853h325.506c19.019 0 34.446-14.713 34.446-32.853v-310.482c0-18.141-15.427-32.854-34.446-32.854zM947.235 0.004h-325.506c-19.019 0-34.445 14.711-34.445 32.855v310.482c0 18.14 15.425 32.853 34.445 32.853h325.506c19.019 0 34.446-14.713 34.446-32.853v-310.482c0-18.144-15.427-32.855-34.446-32.855z" />
<glyph unicode="&#xe943;" glyph-name="times" d="M776.572 808.317l-264.569-264.569-264.569 264.569c-35.308 35.308-92.439 35.308-127.748 0s-35.308-92.439 0-127.748l264.569-264.569-264.569-264.569c-35.308-35.305-35.308-92.438 0-127.746s92.439-35.308 127.748 0l264.569 264.567 264.569-264.567c35.31-35.308 92.444-35.308 127.751 0s35.308 92.441 0 127.746l-264.572 264.569 264.572 264.569c35.308 35.308 35.308 92.439 0 127.748s-92.441 35.308-127.751 0z" />
<glyph unicode="&#xe944;" glyph-name="unique" d="M512.503 464.122c136.932 0 247.939 111.006 247.939 247.937s-111.006 247.937-247.939 247.937c-136.932 0-247.939-111.006-247.939-247.937s111.006-247.937 247.939-247.937zM512.503 418.775c-203.592 0-369.892-166.299-369.892-369.887v-92.727c0-11.083 9.071-20.157 20.158-20.157h698.461c11.087 0 20.158 9.074 20.158 20.157v92.727c0 203.588-166.301 369.887-368.884 369.887zM634.456 138.583c0-84.661-43.339-131.017-122.961-131.017-77.607 0-120.945 46.356-120.945 131.017v133.043c0 11.087 9.071 20.157 20.157 20.157h38.3c11.087 0 20.158-9.070 20.158-20.157v-137.068c0-47.372 21.165-53.421 42.331-53.421s43.339 6.049 43.339 53.421v137.068c0 11.087 9.071 20.157 20.158 20.157h39.307c11.087 0 20.157-9.070 20.157-20.157v-133.043z" />
<glyph unicode="&#xe945;" glyph-name="unknown-gender" d="M512.002 596.381c100.411 0 181.808 81.399 181.808 181.81s-81.398 181.809-181.808 181.809c-100.41 0-181.809-81.399-181.809-181.809s81.399-181.81 181.809-181.81zM512.149-64h-0.296c-104.535 0-190.010 85.477-190.010 190.009v246.969c0 104.535 85.475 190.010 190.010 190.010h0.296c104.535 0 190.008-85.475 190.008-190.010v-246.969c0-104.533-85.547-190.009-190.008-190.009z" />
<glyph unicode="&#xe946;" glyph-name="web" d="M41.883 116.775c0-27.469 22.447-49.91 49.91-49.91h840.408c27.459 0 49.91 22.444 49.91 49.91v519.802c0 8.412-6.792 15.202-15.203 15.202h-909.829c-8.412 0-15.203-6.79-15.203-15.202v-519.802zM153.363 575.769h490.208c17.99 0 34.104-12.87 36.486-30.708 2.839-21.587-14.086-40.235-35.167-40.235h-490.207c-17.99 0-34.104 12.87-36.486 30.708-2.839 21.587 14.086 40.235 35.165 40.235zM153.363 413.618h282.45c17.99 0 34.104-12.87 36.485-30.709 2.839-21.587-14.086-40.235-35.165-40.235h-282.45c-17.99 0-34.104 12.87-36.486 30.709-2.839 21.587 14.086 40.235 35.165 40.235zM153.363 241.33h282.45c17.99 0 34.104-12.87 36.485-30.708 2.839-21.587-14.086-40.235-35.165-40.235h-282.45c-17.99 0-34.104 12.87-36.486 30.708-2.839 21.587 14.086 40.235 35.165 40.235zM932.206 829.135h-840.408c-27.464 0-49.91-22.447-49.91-49.91v-86.904c0-8.413 6.79-15.203 15.203-15.203h909.829c8.412 0 15.203 6.79 15.203 15.203v86.904c0 27.464-22.45 49.91-49.91 49.91zM636.629 718.315c-24.983-4.71-46.468 16.774-41.753 41.754 2.636 13.986 13.883 25.234 27.87 27.87 24.983 4.712 46.468-16.774 41.754-41.753-2.636-13.987-13.883-25.234-27.871-27.871zM758.245 718.315c-24.983-4.71-46.468 16.774-41.753 41.754 2.635 13.986 13.883 25.234 27.87 27.87 24.983 4.712 46.468-16.774 41.753-41.753-2.632-13.987-13.886-25.234-27.87-27.871zM879.856 718.315c-24.983-4.71-46.462 16.774-41.753 41.754 2.639 13.986 13.886 25.234 27.877 27.87 24.983 4.712 46.462-16.774 41.753-41.753-2.632-13.987-13.886-25.234-27.877-27.871z" />
<glyph unicode="&#xe947;" glyph-name="angle-double-up" d="M979.852 464.265c-17.605-19.758-47.956-21.619-67.71-4.009l-400.101 355.786-400.245-355.786c-19.754-17.611-50.102-15.893-67.709 4.009-17.607 19.758-15.89 50.111 4.008 67.721l431.88 383.992c18.18 16.178 45.522 16.178 63.845 0l432.022-383.992c19.754-17.61 21.615-47.963 4.010-67.721zM979.852-15.739c-17.605-19.762-47.956-21.623-67.71-4.010l-400.101 355.788-400.245-355.788c-19.754-17.612-50.102-15.892-67.709 4.010-17.607 19.762-15.89 50.112 4.008 67.724l431.88 383.989c18.18 16.178 45.522 16.178 63.845 0l432.022-383.989c19.754-17.612 21.615-47.963 4.010-67.724z" />
<glyph unicode="&#xe948;" glyph-name="arrow2-down" d="M512.49-63.923c4.092 0.016 8.176 0.339 12.221 0.961 16.332 2.355 31.461 9.964 43.111 21.669l322.651 323.278c7.097 7.098 12.729 15.528 16.573 24.809s5.821 19.231 5.821 29.279c0 10.048-1.977 19.999-5.821 29.28s-9.476 17.711-16.573 24.81v0c-7.089 7.111-15.502 12.754-24.765 16.604-9.271 3.849-19.196 5.831-29.231 5.831-10.027 0-19.968-1.982-29.231-5.831s-17.684-9.492-24.766-16.604l-193.623-193.952v687.291c-0.019 20.283-8.074 39.729-22.391 54.071s-33.728 22.408-53.976 22.428c-20.254 0-39.677-8.060-53.998-22.406s-22.37-33.804-22.37-54.092v-688.256l-194.584 194.917c-7.092 7.114-15.514 12.758-24.786 16.609s-19.211 5.831-29.249 5.831c-10.037 0-19.977-1.981-29.248-5.831s-17.693-9.496-24.786-16.609v0c-14.303-14.356-22.337-33.809-22.337-54.090s8.034-39.734 22.337-54.088l322.725-323.278c12.8-12.887 29.765-20.779 47.849-22.26 2.805-0.299 5.625-0.449 8.446-0.449v0.079z" />
<glyph unicode="&#xe949;" glyph-name="arrow2-left" d="M0.074 440.492c0.020-4.092 0.342-8.176 0.964-12.221 2.357-16.332 9.961-31.462 21.667-43.111l323.279-322.648c7.098-7.097 15.528-12.737 24.809-16.573 9.281-3.844 19.231-5.829 29.279-5.829s19.999 1.985 29.28 5.829c9.281 3.836 17.711 9.476 24.81 16.573v0c7.111 7.081 12.754 15.502 16.604 24.765s5.831 19.196 5.831 29.231c0 10.027-1.982 19.96-5.831 29.223-3.849 9.271-9.492 17.684-16.604 24.773l-193.952 193.62h687.288c20.283 0.020 39.731 8.074 54.075 22.391 14.336 14.318 22.41 33.729 22.426 53.977 0 20.254-8.058 39.676-22.41 53.998-14.344 14.321-33.8 22.37-54.091 22.37h-688.253l194.917 194.584c7.114 7.092 12.758 15.514 16.609 24.786s5.831 19.212 5.831 29.249c0 10.037-1.981 19.977-5.831 29.249s-9.496 17.693-16.609 24.786v0c-14.356 14.302-33.809 22.337-54.090 22.337s-39.734-8.034-54.088-22.337l-323.279-322.725c-12.884-12.799-20.776-29.764-22.259-47.849-0.3-2.804-0.449-5.624-0.446-8.445h0.074z" />
<glyph unicode="&#xe94a;" glyph-name="arrow2-right" d="M1023.929 441.466c-0.024 4.092-0.347 8.176-0.969 12.221-2.355 16.332-9.956 31.462-21.662 43.111l-323.283 322.649c-7.098 7.1-15.528 12.733-24.809 16.576s-19.231 5.823-29.279 5.823c-10.048 0-19.999-1.98-29.28-5.823s-17.711-9.476-24.81-16.576v0c-7.111-7.086-12.754-15.502-16.604-24.767s-5.831-19.195-5.831-29.227c0-10.030 1.982-19.965 5.831-29.23s9.492-17.681 16.604-24.767l193.952-193.622h-687.291c-20.282-0.020-39.729-8.074-54.070-22.391s-22.408-33.729-22.428-53.977c0-20.254 8.060-39.676 22.406-53.998s33.804-22.37 54.092-22.37h688.256l-194.917-194.587c-7.114-7.089-12.758-15.51-16.609-24.781s-5.831-19.212-5.831-29.247c0-10.043 1.981-19.984 5.831-29.255s9.496-17.692 16.609-24.781v0c14.356-14.304 33.809-22.339 54.090-22.339s39.734 8.034 54.088 22.339l323.283 322.723c12.879 12.8 20.771 29.765 22.252 47.85 0.307 2.804 0.449 5.624 0.449 8.445h-0.071z" />
<glyph unicode="&#xe94b;" glyph-name="arrow2-up" d="M511.512 959.926c-4.092-0.020-8.176-0.342-12.221-0.964-16.332-2.357-31.462-9.961-43.111-21.667l-322.649-323.279c-7.099-7.098-12.733-15.528-16.575-24.809s-5.823-19.231-5.823-29.279c0-10.048 1.98-19.999 5.823-29.28s9.476-17.711 16.575-24.81v0c7.086-7.111 15.502-12.754 24.767-16.604s19.196-5.831 29.227-5.831c10.031 0 19.965 1.982 29.23 5.831s17.681 9.492 24.767 16.604l193.622 193.952v-687.291c0.020-20.283 8.074-39.731 22.392-54.067 14.317-14.344 33.728-22.41 53.976-22.433 20.254 0 39.676 8.066 53.998 22.41s22.37 33.8 22.37 54.091v688.256l194.584-194.917c7.096-7.114 15.517-12.758 24.788-16.609s19.212-5.831 29.247-5.831c10.035 0 19.976 1.981 29.247 5.831s17.692 9.496 24.789 16.609v0c14.297 14.356 22.331 33.809 22.331 54.091s-8.034 39.733-22.331 54.088l-322.727 323.279c-12.8 12.884-29.765 20.776-47.85 22.259-2.804 0.3-5.624 0.449-8.445 0.446v-0.074z" />
<glyph unicode="&#xe94c;" glyph-name="arrow-left" d="M426.365 736.998l-405.445-251.393c-27.893-17.291-27.893-57.921 0-75.211l405.445-251.39c29.459-18.291 67.527 2.914 67.527 37.568v126.871h481.512c26.822 0 48.596 21.774 48.596 48.599v151.847c0 26.825-21.774 48.599-48.596 48.599h-481.441v126.87c0 34.724-38.070 55.929-67.598 37.642z" />
<glyph unicode="&#xe94d;" glyph-name="arrow-right" d="M597.637 159.004l405.443 251.391c27.894 17.29 27.894 57.921 0 75.211l-405.443 251.393c-29.459 18.286-67.527-2.917-67.527-37.57v-126.871h-481.511c-26.826 0-48.599-21.774-48.599-48.599v-151.847c0-26.825 21.774-48.599 48.599-48.599h481.439v-126.87c0-34.724 38.069-55.931 67.598-37.64z" />
<glyph unicode="&#xe94e;" glyph-name="book" d="M921.86 102.053h-725.386c-7.629 0-13.813-6.181-13.813-13.809s6.184-13.817 13.813-13.817h725.386c7.628 0 13.817 6.188 13.817 13.817s-6.188 13.809-13.817 13.809zM921.86 171.055h-725.386c-7.629 0-13.813-6.188-13.813-13.817s6.184-13.809 13.813-13.809h725.386c7.628 0 13.817 6.181 13.817 13.809s-6.188 13.817-13.817 13.817zM173.96 210.485h754.192c4.172 0 8.175 1.66 11.129 4.613s4.615 6.959 4.615 11.136v658.395c0 11.503-4.571 22.534-12.701 30.668-8.138 8.134-19.17 12.703-30.668 12.703h-777.053c-11.503 0-22.534-4.569-30.668-12.703s-12.703-19.164-12.703-30.668v-864.833c0-13.735 5.458-26.91 15.172-36.621 9.714-9.718 22.889-15.175 36.626-15.175h780.085c8.367 0 16.394 3.323 22.316 9.246 5.922 5.915 9.246 13.942 9.246 22.316-0.015 8.36-3.352 16.372-9.268 22.272-5.915 5.908-13.935 9.223-22.294 9.223h-736.991c-6.857 0-13.433 2.718-18.288 7.562-4.854 4.837-7.593 11.409-7.612 18.27v129.083c0 3.249 0.645 6.462 1.898 9.459s3.093 5.714 5.407 7.996c2.313 2.281 5.055 4.083 8.070 5.294s6.241 1.81 9.489 1.764zM547.253 331.902c-3.867-3.991-8.508-7.149-13.638-9.288s-10.64-3.207-16.196-3.143c-5.438-0.018-10.822 1.076-15.823 3.214s-9.509 5.273-13.253 9.217c-4.016 3.851-7.198 8.488-9.348 13.62s-3.225 10.65-3.153 16.214c0.329 10.885 4.801 21.236 12.502 28.938s18.052 12.173 28.938 12.502c5.563 0.067 11.082-1.007 16.214-3.157s9.767-5.328 13.621-9.341c3.943-3.744 7.082-8.257 9.219-13.257s3.232-10.381 3.214-15.819c0.022-5.55-1.087-11.047-3.261-16.153s-5.363-9.716-9.379-13.546h0.344zM400.285 780.823c17.741 11.472 37.148 20.139 57.533 25.694 21.299 5.281 43.182 7.831 65.125 7.595 47.609 0 85.619-11.902 114.027-35.706s42.613-55.779 42.613-95.929c0.175-16.234-3.121-32.317-9.668-47.172-5.4-12.486-12.899-23.956-22.169-33.911-12.002-12.095-24.734-23.442-38.123-33.98-17.232-12.722-32.741-27.625-46.137-44.339-9.254-12.935-14.098-28.507-13.813-44.409-0.029-3.72-0.887-7.386-2.513-10.731s-3.974-6.284-6.879-8.607c-5.933-5.481-13.747-8.473-21.825-8.357-7.998-0.089-15.753 2.733-21.822 7.942-2.944 2.376-5.312 5.388-6.927 8.809s-2.435 7.161-2.398 10.943c-0.52 18.858 3.26 37.588 11.051 54.77 6.224 13.692 14.387 26.413 24.24 37.776 12.781 13.68 26.639 26.315 41.438 37.78 14.713 10.732 28.091 23.183 39.851 37.088 7.45 9.335 11.496 20.93 11.466 32.873 0 49.911-32.805 74.864-98.417 74.864-15.886 0.044-31.716-1.926-47.105-5.867-14.404-3.582-28.186-9.309-40.885-16.989-5.421-3.39-11.636-5.298-18.025-5.527-7.438 0.305-14.489 3.393-19.758 8.649s-8.375 12.298-8.697 19.734c0.236 5.67 1.981 11.174 5.052 15.945s7.361 8.637 12.424 11.199l0.343-0.139z" />
<glyph unicode="&#xe94f;" glyph-name="caret-left" d="M260.757 354.705c-46.915 27.242-46.915 95.349 0 122.591l422.238 245.178c46.915 27.241 105.561-6.812 105.561-61.295v-490.358c0-54.483-58.643-88.537-105.561-61.295l-422.238 245.178z" />
<glyph unicode="&#xe950;" glyph-name="caret-right" d="M753.366 477.295c46.915-27.242 46.915-95.349 0-122.591l-422.238-245.178c-46.915-27.241-105.561 6.812-105.561 61.295v490.358c0 54.483 58.643 88.537 105.561 61.295l422.238-245.178z" />
<glyph unicode="&#xe951;" glyph-name="update" d="M962.351 793.234l-60.126-59.862c-56.714 74.304-133.706 130.783-221.788 162.691s-183.525 37.896-274.933 17.247c-91.407-20.648-174.916-67.058-240.545-133.687s-110.605-150.659-129.559-242.054c-0.428-2.1-0.375-4.27 0.152-6.348s1.516-4.009 2.895-5.654c1.379-1.646 3.11-2.962 5.068-3.849s4.092-1.329 6.245-1.286h133.598c4.069-0.071 8.047 1.191 11.324 3.593s5.669 5.811 6.811 9.699c18.022 59.008 52.565 111.681 99.575 151.844s104.542 66.157 165.858 74.931c61.315 8.774 123.875-0.035 180.342-25.392s104.507-66.21 138.488-117.777l-65.83-65.631c-2.74-2.604-4.626-5.973-5.412-9.663s-0.434-7.53 1.009-11.018c1.443-3.488 3.908-6.46 7.076-8.528s6.889-3.135 10.676-3.062h242.509c3.596 0.097 7.097 1.218 10.073 3.233s5.31 4.839 6.72 8.136c1.078 2.408 1.728 4.983 1.935 7.609v241.45c-0.008 3.709-1.108 7.333-3.175 10.418s-5 5.494-8.44 6.923c-3.434 1.429-7.215 1.815-10.878 1.11-3.655-0.705-7.015-2.47-9.667-5.074zM980.488 370.948h-133.595c-4.069 0.085-8.064-1.177-11.343-3.581s-5.671-5.819-6.794-9.715c-17.901-59.043-52.313-111.791-99.217-152.078-46.902-40.287-104.356-66.443-165.64-75.416s-123.866-0.384-180.429 24.753c-56.563 25.145-104.77 65.798-138.982 117.212l65.835 65.545c2.771 2.599 4.683 5.974 5.486 9.679s0.463 7.565-0.983 11.071c-1.448 3.506-3.93 6.492-7.118 8.565s-6.933 3.133-10.738 3.041h-242.505c-3.599-0.096-7.093-1.218-10.070-3.233s-5.311-4.839-6.724-8.136c-1.222-2.022-1.887-4.328-1.931-6.687v-241.454c-0.092-3.788 0.973-7.518 3.054-10.693s5.080-5.642 8.602-7.082c3.521-1.44 7.399-1.787 11.12-0.983 3.721 0.798 7.111 2.703 9.721 5.465l60.12 59.859c56.729-74.223 133.712-130.634 221.758-162.491s183.44-37.824 274.797-17.177c91.358 20.64 174.822 67.015 240.427 133.595 65.612 66.572 110.6 150.542 129.593 241.877 0.332 2.143 0.207 4.33-0.347 6.426-0.562 2.095-1.551 4.051-2.91 5.748s-3.050 3.094-4.977 4.106c-1.92 1.013-4.040 1.621-6.21 1.78v0zM484.224 434.233c-3.527 6.688-6.968 13.71-10.328 20.983s-5.795 12.208-7.138 14.884l-1.595-1.253-23.010-161.862h-57.016l39.213 275.897h52.986l69.107-128c3.482-6.137 6.597-12.474 9.323-18.979l3.608-7.438c1.343-2.843 2.858-5.853 4.453-9.030l1.258 1.172 23.006 162.274h57.016l-39.213-275.897h-52.986l-68.685 127.249z" />
<glyph unicode="&#xe952;" glyph-name="wrench" d="M1018.975 734.443c-0.323 1.677-1.095 3.234-2.229 4.508-1.142 1.273-2.607 2.213-4.238 2.721-1.638 0.506-3.371 0.56-5.033 0.155s-3.182-1.25-4.403-2.45l-167.983-167.629c-3.214-3.205-7.223-5.511-11.618-6.684s-9.019-1.17-13.407 0.004l-127.208 34.011c-4.396 1.177-8.402 3.487-11.62 6.699s-5.533 7.209-6.712 11.596l-34.083 127.015c-1.183 4.384-1.19 8.997-0.015 13.382s3.491 8.383 6.709 11.592l169.424 169.071c1.182 1.2 2.016 2.697 2.426 4.33 0.402 1.633 0.362 3.344-0.118 4.956s-1.386 3.067-2.623 4.211c-1.237 1.144-2.749 1.935-4.403 2.295-47.639 9.847-97.034 7.068-143.264-8.066s-87.678-42.092-120.217-78.187c-32.54-36.095-55.032-80.070-65.239-127.542s-7.771-96.782 7.066-143.021c1.656-5.113 1.819-10.589 0.472-15.792s-4.149-9.917-8.080-13.59l-461.95-425.139c-4.771-4.395-8.138-10.090-9.681-16.384s-1.193-12.902 1.007-18.999l40.019-109.922c1.645-4.529 4.26-8.641 7.664-12.044 3.404-3.411 7.512-6.042 12.040-7.696l110.24-39.857c6.099-2.213 12.716-2.584 19.024-1.063 6.307 1.528 12.021 4.884 16.427 9.641l427.411 462.113c3.626 3.883 8.283 6.655 13.429 7.999s10.565 1.204 15.632-0.407c45.912-14.028 94.677-15.977 141.564-5.657 46.891 10.32 90.309 32.555 126.054 64.553 35.738 31.998 62.582 72.672 77.934 118.074 15.344 45.402 18.668 93.991 9.657 141.054l-0.071 0.152zM132.2 43.583c-6.019 0-11.901 1.78-16.906 5.12-5.004 3.332-8.904 8.082-11.207 13.627-2.303 5.553-2.905 11.658-1.731 17.55 1.174 5.884 4.072 11.296 8.328 15.541s9.677 7.144 15.58 8.31c5.903 1.174 12.021 0.575 17.582-1.725s10.315-6.191 13.659-11.185c3.344-4.994 5.126-10.862 5.126-16.864-0.061-8.019-3.293-15.683-8.994-21.331s-13.407-8.814-21.438-8.814v-0.228zM572.315 463.791l-347.071-346.338c-2.893-3.174-6.4-5.734-10.312-7.515-3.912-1.788-8.149-2.757-12.448-2.859s-8.573 0.662-12.567 2.253c-3.994 1.599-7.622 3.978-10.665 7.010s-5.441 6.656-7.043 10.634c-1.603 3.986-2.381 8.247-2.285 12.54 0.097 4.285 1.066 8.515 2.846 12.422s4.334 7.412 7.511 10.311l347.149 346.411c6.050 5.49 13.987 8.445 22.163 8.248s15.961-3.529 21.739-9.304c5.778-5.775 9.103-13.549 9.287-21.708s-2.79-16.076-8.302-22.104z" />
<glyph unicode="&#xe953;" glyph-name="Agent" d="M512 928c-265.12 0-480-214.88-480-480 0-265.122 214.88-480 480-480 265.122 0 480 214.878 480 480 0 265.12-214.878 480-480 480zM514.4 677.12c98.56 0 178.56-79.84 178.56-178.56 0-98.56-79.84-178.56-178.56-178.56-98.56 0-178.56 79.839-178.56 178.56s80 178.56 178.56 178.56zM514.4 25.918c-115.2 0-219.68 46.722-295.2 122.245 68.96 87.038 175.52 143.038 295.2 143.038s226.24-56 295.2-143.038c-75.52-75.522-179.84-122.245-295.2-122.245z" />
<glyph unicode="&#xe954;" glyph-name="Customer" d="M795.538 690.153c0-149.032-127.004-269.847-283.673-269.847s-283.676 120.815-283.676 269.847c0 149.032 127.006 269.847 283.676 269.847s283.673-120.815 283.673-269.847zM512.132 378.83c273.986 0 503.566-382.752 503.566-382.752 19.645-33.028 3.23-60.164-36.604-60.164h-933.924c-40.102 0-56.52 27.136-36.873 60.164 0 0 229.847 382.752 503.834 382.752zM542.006 335.562h-60.019c-13.457 0-22.070-14.082-15.341-25.090l30.144-49.412c6.728-11.265 23.684-11.265 30.413 0l30.144 49.412c6.728 11.265-1.884 25.090-15.341 25.090zM528.818-36.951l67.824 64.52c6.728 6.396 8.881 15.872 5.382 24.064l-67.823 170.256c-7.805 19.458-36.873 19.458-44.678 0l-67.823-170.256c-3.499-8.192-1.346-17.668 5.382-24.064l67.824-64.52c9.42-8.956 24.492-8.956 33.912 0z" />
<glyph unicode="&#xe955;" glyph-name="Drag" d="M497.362 953.321c7.722 8.906 21.554 8.906 29.275 0l158.852-183.206c10.861-12.526 1.953-32.002-14.638-32.002h-317.703c-16.59 0-25.498 19.476-14.638 32.002l158.852 183.206zM47.262 602.726c0 10.682 8.67 19.341 19.364 19.341h890.751c10.689 0 19.361-8.659 19.361-19.341s-8.672-19.34-19.361-19.34h-890.751c-10.694 0-19.364 8.659-19.364 19.34zM47.262 448c0 10.682 8.67 19.341 19.364 19.341h890.751c10.689 0 19.361-8.659 19.361-19.341s-8.672-19.341-19.361-19.341h-890.751c-10.694 0-19.364 8.659-19.364 19.341zM66.626 312.614c-10.694 0-19.364-8.659-19.364-19.34s8.67-19.341 19.364-19.341h890.751c10.689 0 19.361 8.659 19.361 19.341s-8.672 19.34-19.361 19.34h-890.751zM497.362-57.32c7.722-8.909 21.554-8.909 29.275 0l158.852 183.201c10.861 12.532 1.953 32.004-14.638 32.004h-317.703c-16.59 0-25.498-19.472-14.638-32.004l158.852-183.201z" />
<glyph unicode="&#xe956;" glyph-name="exchange" d="M488.726 721.528l-188.563 192.495c-18.228 18.565-48.065 18.565-66.293 0l-188.497-192.495c-28.929-29.51-8.108-79.408 33.146-79.408h103.655v-649.079c0-13.876 11.156-25.078 24.972-25.078h119.742c13.816 0 24.973 11.202 24.973 25.078v649.079h103.654c41.319 0 62.141 49.899 33.211 79.408zM535.222 174.436l188.497-192.495c18.228-18.565 48.065-18.565 66.291 0l188.5 192.495c28.933 29.508 8.108 79.407-33.15 79.407h-103.65v649.078c0 13.875-11.158 25.080-24.975 25.080h-119.74c-13.816 0-24.972-11.204-24.972-25.080v-649.078h-103.654c-41.254 0-62.076-49.834-33.146-79.407z" />
<glyph unicode="&#xe957;" glyph-name="flag" d="M239.236 826.435c7.406 13.097 11.644 28.303 11.644 44.522 0 49.177-38.97 89.043-87.040 89.043s-87.040-39.866-87.040-89.043c0-32.959 17.503-61.735 43.52-77.132v-813.305c0-24.584 19.484-44.52 43.52-44.52s43.52 19.936 43.52 44.52v267.132h696.32c15.667 0 30.129 8.617 37.856 22.561s7.538 31.061-0.512 44.817l-130.426 223.043 130.339 220.826c8.113 13.75 8.357 30.907 0.646 44.895-7.719 13.989-22.205 22.641-37.904 22.641h-664.444zM207.36 336.696v400.695h619.205l-103.998-176.198c-8.32-14.097-8.355-31.739-0.091-45.87l104.46-178.627h-619.575z" />
<glyph unicode="&#xe958;" glyph-name="home" d="M974.262 567.032l-431.685 350.122c-17.762 14.459-43.393 14.459-61.155 0l-431.682-350.122c-35.075-28.472-14.615-84.527 30.577-84.527h81.84v-444.212c0-38.932 31.927-70.294 71.047-70.294h190.659c-1.124 2.895-1.798 6.004-1.798 9.341v158.821c0 15.352 12.591 27.81 28.104 27.81h117.139c15.514 0 28.104-12.457 28.104-27.81v-158.821c0-3.337-0.674-6.447-1.798-9.341h197.183c39.345 0 71.047 31.584 71.047 70.294v444.212h81.836c45.194 0 65.649 56.055 30.579 84.527z" />
<glyph unicode="&#xe959;" glyph-name="pps" d="M410.558 121.829c2.194-3.153 4.892-5.347 8.046-6.676 29.075-12.569 60.206-18.875 93.44-19.015 19.612 0 37.12 3.249 52.434 9.644 15.314 6.402 27.292 15.633 35.932 27.707 8.366 12.067 12.572 25.278 12.572 39.678 0 16.777-4.252 30.628-12.754 41.645s-19.702 19.109-33.6 24.367c-11.52 4.754-28.297 9.691-50.287 14.947-17.28 3.932-30.263 7.589-38.903 11.017-8.64 3.382-15.863 7.863-21.623 13.348-6.262 5.485-9.417 12.982-9.417 22.4 0 13.852 6.354 24.731 19.062 32.594s29.532 11.795 50.468 11.795c21.76 0 42.834-3.52 63.268-10.606 2.377-1.052 4.48-1.554 6.308-1.554 4.434 0 8.228 1.737 11.383 5.303s4.708 7.405 4.708 11.612c0 7.863-3.794 13.211-11.382 16.091-23.315 8.64-49.372 12.982-78.173 12.982-20.434 0-38.537-3.383-54.399-10.194-15.817-6.812-27.794-16.64-35.932-29.485-7.863-12.572-11.795-26.332-11.795-41.234s4.023-27.794 12.16-38.675c8.137-10.834 20.16-19.292 36.16-25.326 13.623-5.486 30.765-10.834 51.473-16.091 18.103-4.709 31.041-8.503 38.902-11.383s14.4-6.812 19.658-11.794c5.76-4.983 8.64-11.384 8.64-19.249 0-29.849-22.765-44.795-68.343-44.795-27.247 0-53.029 5.347-77.394 16.091-2.103 1.004-4.572 1.551-7.452 1.551-4.708 0-8.64-1.595-11.794-4.889s-4.708-7.267-4.708-11.977c0-3.427 1.098-6.676 3.337-9.829zM464.092 693.988c-4.298 4.115-9.326 6.172-15.132 6.172h-280.457c-5.806 0-10.789-2.057-14.903-6.172s-6.172-9.098-6.172-14.903c0-5.806 2.057-10.834 6.172-15.131s9.098-6.4 14.903-6.4h97.599v-82.926c0-28.115 4.754-51.566 14.217-70.355s22.308-32.319 38.492-40.548c14.947-7.954 31.451-11.932 49.507-11.932 19.567 0 36.755 4.343 51.566 13.074 14.812 8.686 26.788 21.623 35.978 38.72 9.783 18.652 14.674 42.332 14.674 71.040v104.502c0 5.806-2.148 10.743-6.445 14.857zM414.4 515.748c-10.56-14.217-25.874-21.303-46.034-21.303s-35.52 7.086-46.034 21.303c-9.966 13.44-15.177 33.052-15.726 58.697 13.486-19.612 36.068-32.502 61.714-32.502 25.692 0 48.367 12.938 61.807 32.686-0.548-25.737-5.76-45.394-15.727-58.88zM851.242 700.159c5.812 0 10.84-2.057 15.139-6.172 4.29-4.114 6.44-9.052 6.44-14.858v-104.502c0-28.708-4.889-52.388-14.673-71.040-9.187-17.097-21.164-30.034-35.977-38.72-14.806-8.732-31.998-13.074-51.567-13.074-18.054 0-34.556 3.978-49.505 11.932-16.183 8.228-29.029 21.76-38.492 40.548s-14.217 42.24-14.217 70.355v82.926h-97.599c-5.806 0-10.789 2.103-14.902 6.4s-6.172 9.325-6.172 15.131c0 5.806 2.057 10.789 6.172 14.903s9.097 6.172 14.902 6.172h280.454zM770.653 494.446c20.16 0 35.468 7.086 46.028 21.303 9.969 13.44 15.183 33.142 15.729 58.834-13.484-19.748-36.111-32.686-61.809-32.686-25.642 0-48.225 12.892-61.711 32.548 0.548-25.599 5.76-45.257 15.726-58.697 10.514-14.217 25.874-21.303 46.037-21.303zM192-32h639.997c88.231 0 160.002 71.771 160.002 160.002v639.997c0 88.229-71.771 160-160.002 160h-639.997c-88.229 0-160-71.771-160-160v-639.997c0-88.231 71.771-160.002 160-160.002zM77.714 768c0 63.040 51.246 114.286 114.286 114.286h639.997c63.042 0 114.292-51.246 114.292-114.286v-639.997c0-63.042-51.249-114.292-114.292-114.292h-639.997c-63.040 0-114.286 51.249-114.286 114.292v639.997z" />
<glyph unicode="&#xe95a;" glyph-name="pps-mirror" d="M410.558 121.829c2.195-3.153 4.892-5.347 8.046-6.676 29.075-12.569 60.206-18.875 93.441-19.015 19.612 0 37.12 3.242 52.434 9.644s27.292 15.633 35.932 27.707c8.365 12.067 12.572 25.278 12.572 39.678 0 16.777-4.252 30.628-12.755 41.645s-19.702 19.108-33.6 24.366c-11.52 4.754-28.297 9.692-50.286 14.948-17.28 3.932-30.262 7.588-38.903 11.017-8.64 3.383-15.863 7.863-21.623 13.348-6.262 5.486-9.417 12.982-9.417 22.401 0 13.852 6.354 24.731 19.063 32.594s29.531 11.794 50.468 11.794c21.759 0 42.833-3.519 63.268-10.606 2.377-1.051 4.48-1.554 6.308-1.554 4.434 0 8.228 1.737 11.382 5.303s4.708 7.406 4.708 11.612c0 7.863-3.794 13.212-11.382 16.092-23.314 8.64-49.372 12.982-78.172 12.982-20.435 0-38.538-3.383-54.4-10.194-15.818-6.812-27.794-16.64-35.932-29.486-7.863-12.571-11.795-26.332-11.795-41.234s4.023-27.794 12.16-38.674c8.137-10.835 20.16-19.292 36.16-25.326 13.623-5.486 30.766-10.835 51.474-16.092 18.102-4.708 31.040-8.502 38.902-11.382s14.4-6.812 19.658-11.795c5.76-4.983 8.64-11.383 8.64-19.248 0-29.849-22.766-44.795-68.343-44.795-27.246 0-53.029 5.347-77.394 16.091-2.103 1.004-4.571 1.551-7.451 1.551-4.708 0-8.64-1.595-11.795-4.889s-4.708-7.267-4.708-11.977c0-3.427 1.098-6.676 3.337-9.829zM566.158 693.991c4.298 4.114 9.326 6.172 15.132 6.172h280.46c5.804 0 10.789-2.058 14.902-6.172s6.166-9.098 6.166-14.903c0-5.806-2.053-10.835-6.166-15.132s-9.097-6.399-14.902-6.399h-97.602v-82.926c0-28.115-4.754-51.566-14.217-70.355s-22.308-32.32-38.491-40.548c-14.948-7.955-31.452-11.933-49.508-11.933-19.567 0-36.755 4.343-51.566 13.074-14.812 8.686-26.788 21.623-35.977 38.721-9.783 18.652-14.674 42.331-14.674 71.040v104.502c0 5.806 2.148 10.743 6.445 14.858zM615.851 515.75c10.56-14.217 25.874-21.303 46.034-21.303s35.52 7.086 46.034 21.303c9.966 13.44 15.177 33.052 15.726 58.698-13.486-19.612-36.068-32.502-61.714-32.502-25.692 0-48.367 12.938-61.807 32.686 0.548-25.737 5.76-45.395 15.727-58.881zM179.007 700.162c-5.805 0-10.834-2.058-15.131-6.172s-6.445-9.052-6.445-14.857v-104.502c0-28.709 4.891-52.388 14.674-71.040 9.188-17.097 21.166-30.035 35.977-38.721 14.812-8.732 32-13.074 51.565-13.074 18.057 0 34.56 3.978 49.508 11.933 16.183 8.228 29.029 21.759 38.492 40.548s14.217 42.24 14.217 70.355v82.926h97.599c5.806 0 10.789 2.103 14.903 6.399s6.172 9.326 6.172 15.132c0 5.806-2.057 10.788-6.172 14.903s-9.098 6.172-14.903 6.172h-280.458zM259.602 494.447c-20.16 0-35.474 7.086-46.034 21.303-9.967 13.44-15.177 33.142-15.727 58.835 13.486-19.748 36.114-32.686 61.806-32.686 25.646 0 48.229 12.892 61.715 32.548-0.548-25.6-5.76-45.258-15.726-58.698-10.514-14.217-25.874-21.303-46.034-21.303zM192-32h639.997c88.231 0 160.002 71.771 160.002 160.002v639.997c0 88.229-71.771 160-160.002 160h-639.997c-88.229 0-160-71.771-160-160v-639.997c0-88.231 71.771-160.002 160-160.002zM77.714 768c0 63.040 51.246 114.286 114.286 114.286h639.997c63.042 0 114.292-51.246 114.292-114.286v-639.997c0-63.042-51.249-114.292-114.292-114.292h-639.997c-63.040 0-114.286 51.249-114.286 114.292v639.997z" />
<glyph unicode="&#xe95b;" glyph-name="Report" d="M738.536 607.794h-738.536v85.93c0 29.777 24.874 53.599 55.968 53.599h536.875c80.249 0 145.693-62.392 145.693-139.529zM968.034 711.59h-256.447c29.908-25.524 48.564-62.675 48.564-104.080h263.848v50.764c0 29.494-25.175 53.316-55.966 53.316zM0 135.326v454.602h1024.299v-454.602c0-29.783-25.175-53.602-55.973-53.602h-912.358c-31.093 0-55.968 24.103-55.968 53.602z" />
<glyph unicode="&#xe95c;" glyph-name="three-dot" d="M102.4 345.6c56.554 0 102.4 45.846 102.4 102.4s-45.846 102.4-102.4 102.4c-56.554 0-102.4-45.846-102.4-102.4s45.846-102.4 102.4-102.4zM512 345.6c56.554 0 102.4 45.846 102.4 102.4s-45.846 102.4-102.4 102.4c-56.554 0-102.4-45.846-102.4-102.4s45.846-102.4 102.4-102.4zM921.6 345.6c56.556 0 102.4 45.846 102.4 102.4s-45.844 102.4-102.4 102.4c-56.556 0-102.4-45.846-102.4-102.4s45.844-102.4 102.4-102.4z" />
<glyph unicode="&#xe95d;" glyph-name="three-dot-v" d="M614.4 857.6c0-56.554-45.846-102.4-102.4-102.4s-102.4 45.846-102.4 102.4c0 56.554 45.846 102.4 102.4 102.4s102.4-45.846 102.4-102.4zM614.4 448c0-56.554-45.846-102.4-102.4-102.4s-102.4 45.846-102.4 102.4c0 56.554 45.846 102.4 102.4 102.4s102.4-45.846 102.4-102.4zM614.4 38.4c0-56.554-45.846-102.4-102.4-102.4s-102.4 45.846-102.4 102.4c0 56.554 45.846 102.4 102.4 102.4s102.4-45.846 102.4-102.4z" />
<glyph unicode="&#xe95e;" glyph-name="trashcan" d="M911.588 888.558h-167.645v41.603c0 16.641-13.33 29.839-29.5 29.839h-409.316c-16.168 0-29.216-13.198-29.216-29.552v-41.89h-167.641c-16.168 0-29.5-13.485-29.5-29.839v-47.629c0-16.354 13.332-29.839 29.5-29.839h803.319c16.163 0 29.499 13.485 29.499 29.839v47.629c0 16.641-13.052 29.839-29.499 29.839zM796.136-64h-572.419c-44.25 0-80.275 36.439-80.275 81.195v680.276c0 16.928 13.616 30.413 30.068 30.413h672.551c16.738 0 30.066-13.77 30.066-30.413v-680.276c0.284-44.757-35.738-81.195-79.99-81.195z" />
<glyph unicode="&#xe95f;" glyph-name="edit" d="M780.714-1.118h-639.553c-59.23 0-107.353 48.121-107.353 107.35v639.552c0 59.23 48.124 107.353 107.353 107.353h319.666c30.050 0 54.439-24.389 54.439-54.439s-24.389-54.439-54.439-54.439h-318.142v-636.718h636.719v311.826c0 30.050 24.388 54.439 54.44 54.439 30.045 0 54.44-24.389 54.44-54.439v-313.135c-0.22-59.23-48.341-107.35-107.571-107.35zM421.198 423.506c2.178 12.412 11.106 30.050 19.815 38.978l310.52 320.972c8.71 9.146 23.303 9.364 32.447 0.435l87.539-84.925c9.144-8.71 9.357-23.3 0.434-32.446l-310.304-320.536c-8.709-9.146-26.131-18.509-38.324-21.122l-101.039-20.905c-12.412-2.613-20.686 5.444-18.509 17.857l17.42 101.691zM807.493 806.755c-9.144 8.71-9.365 23.3-0.434 32.446l56.176 57.923c8.71 9.145 23.306 9.364 32.451 0.435l87.539-84.925c9.144-8.71 9.357-23.3 0.434-32.446l-56.184-57.923c-8.71-9.146-23.299-9.364-32.443-0.435l-87.539 84.925z" />
<glyph unicode="&#xe960;" glyph-name="loading-circle" d="M983.131 355.696c1.905 9.769 3.508 19.642 4.815 29.612 2.673 20.518 4.054 41.444 4.054 62.693s-1.381 42.174-4.054 62.692c-1.307 9.97-2.91 19.844-4.815 29.612-1.92 9.872-4.15 19.637-6.661 29.282-30.875-5.985-52.143-35.049-48.023-66.655 2.341-17.952 3.552-36.286 3.552-54.932s-1.211-36.98-3.552-54.932c-4.12-31.605 17.147-60.669 48.023-66.655 2.511 9.646 4.741 19.41 6.661 29.282zM926.358 205.547c-26.075 17.599-61.676 12.075-81.105-13.204-22.375-29.116-48.48-55.221-77.596-77.596-25.279-19.429-30.802-55.030-13.204-81.105 8.648 5.073 17.123 10.412 25.417 15.995 8.308 5.598 16.423 11.446 24.347 17.531 33.253 25.551 63.065 55.362 88.615 88.615 6.085 7.924 11.933 16.040 17.531 24.347 5.583 8.293 10.922 16.767 15.995 25.417zM633.587-16.47c-5.985 30.875-35.049 52.143-66.655 48.023-17.952-2.341-36.286-3.552-54.932-3.552s-36.98 1.211-54.932 3.552c-31.605 4.12-60.669-17.147-66.655-48.023 9.646-2.511 19.41-4.741 29.282-6.661 9.769-1.905 19.642-3.508 29.612-4.815 20.518-2.673 41.444-4.054 62.693-4.054s42.174 1.381 62.693 4.054c9.97 1.307 19.844 2.91 29.612 4.815 9.872 1.92 19.637 4.15 29.282 6.661zM269.547 33.642c17.599 26.075 12.075 61.676-13.204 81.105-29.117 22.375-55.224 48.48-77.6 77.596-19.426 25.279-55.028 30.803-81.099 13.204 5.072-8.648 10.407-17.123 15.994-25.417 5.595-8.308 11.442-16.423 17.53-24.347 25.553-33.253 55.363-63.065 88.615-88.615 7.924-6.085 16.042-11.933 24.346-17.531 8.292-5.583 16.769-10.922 25.418-15.995zM47.533 326.413c30.87 5.985 52.142 35.049 48.020 66.655-2.342 17.952-3.553 36.286-3.553 54.932s1.211 36.98 3.553 54.932c4.123 31.605-17.15 60.669-48.020 66.655-2.518-9.646-4.744-19.41-6.667-29.282-1.903-9.769-3.509-19.642-4.809-29.612-2.677-20.518-4.058-41.444-4.058-62.693s1.381-42.174 4.058-62.693c1.3-9.97 2.907-19.844 4.809-29.612 1.923-9.872 4.148-19.637 6.667-29.282zM97.644 690.453c26.071-17.599 61.673-12.075 81.099 13.204 22.375 29.117 48.483 55.224 77.6 77.6 25.279 19.426 30.803 55.028 13.204 81.099-8.648-5.072-17.125-10.407-25.418-15.994-8.303-5.595-16.422-11.442-24.346-17.53-33.252-25.553-63.063-55.363-88.615-88.615-6.089-7.924-11.935-16.042-17.53-24.346-5.587-8.292-10.922-16.769-15.994-25.418zM390.413 912.467c5.985-30.87 35.049-52.143 66.655-48.020 17.952 2.342 36.286 3.553 54.932 3.553s36.98-1.211 54.932-3.553c31.605-4.123 60.669 17.15 66.655 48.020-9.646 2.518-19.41 4.744-29.282 6.667-9.769 1.903-19.642 3.509-29.612 4.809-20.518 2.677-41.444 4.058-62.692 4.058s-42.174-1.381-62.692-4.058c-9.97-1.3-19.844-2.907-29.612-4.809-9.873-1.923-19.637-4.148-29.282-6.667zM754.453 862.355c-17.599-26.070-12.075-61.673 13.204-81.099 29.116-22.375 55.221-48.483 77.596-77.6 19.429-25.279 55.030-30.803 81.105-13.204-5.073 8.648-10.412 17.125-15.995 25.418-5.598 8.303-11.446 16.422-17.531 24.346-25.551 33.252-55.362 63.063-88.615 88.615-7.924 6.089-16.040 11.935-24.347 17.53-8.293 5.587-16.767 10.922-25.417 15.994z" />
<glyph unicode="&#xe961;" glyph-name="insight-icon" d="M32 832c0 53.019 42.981 96 96 96h768c53.021 0 96-42.981 96-96v-768c0-53.021-42.979-96-96-96h-768c-53.019 0-96 42.979-96 96v768zM256 288v-159.997c0-17.678 14.327-32.005 32.001-32.005h63.999c17.674 0 32.001 14.326 32.001 32.005v159.997c0 17.674-14.327 32.001-32.001 32.001h-63.999c-17.674 0-32.001-14.327-32.001-32.001zM480 400c-17.674 0-32.001-14.327-32.001-32v-239.998c0-17.678 14.327-32.005 32.001-32.005h63.999c17.674 0 32.001 14.326 32.001 32.005v239.998c0 17.673-14.327 32-32.001 32h-63.999zM640 512v-383.998c0-17.678 14.327-32.005 32.001-32.005h63.999c17.674 0 32.001 14.326 32.001 32.005v383.998c0 17.673-14.327 32-32.001 32h-63.999c-17.674 0-32.001-14.327-32.001-32zM757.97 728.754c12.839 3.297 20.571 16.377 17.277 29.215-3.301 12.839-16.377 20.573-29.215 17.276l-179.892-46.196c-7.254-1.863-13.223-7.006-16.138-13.905l-63.854-151.143c-4.348-10.293-13.749-17.572-24.803-19.204l-127.985-18.898c-4.626-0.683-8.951-2.702-12.444-5.81l-96.865-86.158c-9.904-8.81-10.792-23.979-1.982-33.883s23.979-10.792 33.883-1.982l84.37 75.044c4.658 4.144 10.426 6.836 16.593 7.747l142.593 21.055c8.29 1.224 15.341 6.683 18.603 14.403l65.314 154.6c3.887 9.2 11.845 16.058 21.518 18.541l153.029 39.297z" />
<glyph unicode="&#xe962;" glyph-name="X" d="M557.192 448.355l425.59 425.592c12.813 12.81 12.813 32.738 0 45.548-12.806 12.81-32.738 12.81-45.544 0l-425.594-426.303-424.879 425.592c-12.81 12.81-32.738 12.81-45.548 0s-12.81-32.738 0-45.548l425.591-425.591-425.591-424.882c-12.81-12.806-12.81-32.738 0-45.544 6.405-6.41 14.234-9.254 22.774-9.254s16.369 2.844 22.774 9.254l425.592 425.589 425.591-425.589c6.403-6.41 14.231-9.254 22.775-9.254 8.538 0 16.365 2.844 22.775 9.254 12.806 12.806 12.806 32.738 0 45.544l-426.306 425.593z" />
<glyph unicode="&#xe963;" glyph-name="lock" d="M855.725 589.785c-5.49 205.588-156.118 370.215-341.264 370.215s-335.773-164.628-341.265-370.215c-13.336-0.788-23.535-11.815-23.535-25.206v-603.372c0-14.178 10.984-25.206 25.105-25.206h320.083v168.566c-38.442 10.24-66.684 45.686-66.684 87.434 0 50.412 40.010 90.585 90.219 90.585s90.219-40.172 90.219-90.585c0-41.748-28.243-77.194-66.684-87.434v-168.566h312.238c14.123 0 25.104 11.028 25.104 25.206v603.372c0 13.391-10.201 24.418-23.536 25.206zM250.864 589.785c5.492 157.538 121.6 283.569 263.597 283.569s258.106-126.031 263.597-283.569h-527.195z" />
<glyph unicode="&#xe964;" glyph-name="mail" d="M30.876 833.969h962.246c17.030 0 30.878-14.246 30.878-31.805v-62.516l-492.676-339.773c-11.691-8.064-26.956-8.064-38.648-0.002l-492.676 339.742v62.549c0 17.558 13.844 31.805 30.876 31.805zM0 190.664v418.606l492.676-339.742c11.692-8.062 26.957-8.062 38.648 0.001l492.676 339.774v-418.64c0-70.234-55.28-127.121-123.565-127.121h-776.873c-68.28 0-123.562 56.887-123.562 127.121z" />
<glyph unicode="&#xe965;" glyph-name="check-circle-line" d="M512 27.077c-232.469 0-420.923 188.454-420.923 420.923s188.454 420.923 420.923 420.923c232.469 0 420.923-188.454 420.923-420.923s-188.454-420.923-420.923-420.923zM512-32c265.101 0 480 214.899 480 480 0 265.097-214.899 480-480 480-265.097 0-480-214.903-480-480 0-265.101 214.903-480 480-480zM822.117 675.678c19.939-21.146 19.71-55.196-0.503-76.054l-375.193-387.21c-10.515-10.852-24.984-16.447-39.717-15.356s-28.305 8.76-37.256 21.053l-164.469 225.873c-17.203 23.626-12.846 57.369 9.734 75.37s54.829 13.44 72.031-10.186l129.076-177.264 333.616 344.3c20.211 20.857 52.751 20.621 72.682-0.525z" />
<glyph unicode="&#xe966;" glyph-name="x-circle-line" d="M512 27.077c-232.469 0-420.923 188.454-420.923 420.923s188.454 420.923 420.923 420.923c232.469 0 420.923-188.454 420.923-420.923s-188.454-420.923-420.923-420.923zM512-32c265.101 0 480 214.899 480 480 0 265.097-214.899 480-480 480-265.097 0-480-214.903-480-480 0-265.101 214.903-480 480-480zM673.856 688l-161.853-161.852-161.852 161.852c-21.6 21.6-56.551 21.6-78.151 0s-21.601-56.551 0-78.151l161.852-161.852-161.852-161.852c-21.601-21.6-21.601-56.551 0-78.151s56.551-21.6 78.151 0l161.852 161.853 161.853-161.853c21.6-21.6 56.551-21.6 78.151 0s21.601 56.551 0 78.151l-161.852 161.852 161.852 161.852c21.601 21.601 21.601 56.551 0 78.151s-56.551 21.6-78.151 0z" />
<glyph unicode="&#xe967;" glyph-name="pin" d="M529.786 678.502c20.812 5.618 37.068 21.992 42.644 42.957l35.754 134.413c12.016 45.171 68.071 60.301 100.898 27.233l239.005-240.749c32.823-33.068 17.802-89.532-27.041-101.636l-133.434-36.016c-20.812-5.618-37.068-21.992-42.644-42.957l-60.373-226.959c-12.015-45.172-68.069-60.301-100.898-27.233l-306.258 308.498c-32.828 33.067-17.808 89.532 27.034 101.636l225.312 60.813zM69.324-23.008c-18.825-16.014-44.231 9.578-28.33 28.538l300.469 358.321c7.593 9.055 21.251 9.633 29.572 1.252l55.25-55.653c8.32-8.382 7.747-22.14-1.243-29.788l-355.717-302.67z" />
<glyph unicode="&#xe968;" glyph-name="external-link-2" d="M83.66 854.062c-25.551 0-46.26-20.713-46.26-46.26v-719.612c0-25.55 20.713-46.256 46.26-46.256h719.612c25.55 0 46.256 20.706 46.256 46.256v205.604c0 25.551-20.706 46.26-46.256 46.26-25.555 0-46.262-20.713-46.262-46.26v-159.341h-627.088v627.088h390.644c25.551 0 46.26 20.713 46.26 46.26s-20.713 46.26-46.26 46.26h-436.907zM982.589 605.709c5.346-4.117 5.346-12.176 0-16.292l-319.822-246.197c-6.758-5.204-16.552-0.387-16.552 8.147v148.038c-23.888 1.805-48.263 1.779-72.946-0.21-129.936-10.477-242.568-73.316-317.080-165.064-6.808-8.382-20.46-2.872-18.021 7.646 32.651 140.823 148.335 268.721 312.61 325.154 31.756 10.907 63.721 18.597 95.437 23.241v153.598c0 8.532 9.79 13.35 16.553 8.145l319.822-246.197z" />
<glyph unicode="&#xe969;" glyph-name="lengthen" d="M865.721 594.473l151.308-154.855c9.287-9.503 9.287-24.91 0-34.412l-151.308-154.856c-9.287-9.503-24.34-9.503-33.627 0s-9.287 24.91 0 34.413l110.726 113.316h-316.682c-13.132 0-23.776 10.894-23.776 24.333s10.645 24.333 23.776 24.333h316.682l-110.726 113.316c-9.287 9.503-9.287 24.909 0 34.412s24.34 9.503 33.627 0zM158.276 250.327l-151.311 154.855c-9.285 9.503-9.285 24.91 0 34.413l151.312 154.855c9.285 9.503 24.339 9.503 33.624 0s9.285-24.91 0-34.413l-110.723-113.315 316.681-0.001c13.131 0 23.776-10.894 23.776-24.333s-10.645-24.333-23.776-24.333h-316.68l110.723-113.316c9.285-9.503 9.285-24.909 0-34.412s-24.34-9.503-33.625 0z" />
</font>
</defs>
</svg>
